The War with Grandpa 2020 1080p WEBRip 6CH HEVC x265-BvS [MEGA]

War.with.grandpa.2020.1080p.webrip.x265-BvS

Peter is thrilled that Grandpa is coming to live with his family. That is, until Grandpa moves into Peter’s room, forcing him upstairs into the creepy attic. And though he loves his grandpa he wants his room back – so he has no choice but to declare war. With the help of his friends, Peter devises outrageous plans to make Grandpa surrender the room. But Grandpa is tougher than he looks. Rather than give in, Grandpa plans to get even.

Links: iMDB | Trailer

The.War.With.Grandpa.2020.1080p.WEBRip.x265-BvS
MKV-HEVC | 1920×1080 | English | Subs.GER | AAC 5.1 | 1.43GB

This content is reserved for registered users. Sign up here o login to be able to see it. Buy your VIP membership

MEGA – 1FICHIER

1080p.WEBRip.6CH.HEVC.x265-BvS

General
Unique ID : 224355601439454715370406612580019435751 (0xA8C9512D7CA716C9ACCF48F50EAB78E7)
Complete name : War.with.grandpa.2020.1080p.webrip.x265-BvS.mkv
Format : Matroska
Format version : Version 4
File size : 1.43 GiB
Duration : 1 h 38 min
Overall bit rate : 2 089 kb/s
Movie name : BvSRips
Encoded date : UTC 2020-08-28 09:19:19
Writing application : mkvmerge v46.0.0 (‘No Deeper Escape’) 64-bit
Writing library : libebml v1.3.10 + libmatroska v1.5.2

Video
ID : 1
Format : HEVC
Format/Info : High Efficiency Video Coding
Format profile : [email protected]@Main
Codec ID : V_MPEGH/ISO/HEVC
Duration : 1 h 38 min
Bit rate : 1 831 kb/s
Width : 1 920 pixels
Height : 1 080 pixels
Display aspect ratio : 16:9
Frame rate mode : Constant
Frame rate : 24.000 FPS
Color space : YUV
Chroma subsampling : 4:2:0
Bit depth : 8 bits
Bits/(Pixel*Frame) : 0.037
Stream size : 1.26 GiB (88%)
Writing library : x265 1.5:[Windows][GCC 4.7.0][32 bit] Encoding settings : wpp / ctu=64 / tu-intra-depth=1 / tu-inter-depth=1 / me=1 / subme=2 / merange=57 / no-rect / no-amp / max-merge=2 / temporal-mvp / early-skip / no-fast-cbf / rdpenalty=0 / no-tskip / no-tskip-fast / strong-intra-smoothing / no-lossless / no-cu-lossless / no-constrained-intra / fast-intra / open-gop / interlace=0 / keyint=240 / min-keyint=24 / scenecut=40 / rc-lookahead=15 / bframes=4 / bframe-bias=0 / b-adapt=0 / ref=1 / weightp / no-weightb / aq-mode=0 / aq-strength=0.00 / cbqpoffs=0 / crqpoffs=0 / rd=2 / psy-rd=0.00 / psy-rdoq=0.00 / signhide / lft / sao / no-sao-non-deblock / b-pyramid / no-cutree / rc=crf / crf=25.0 / qcomp=0.60 / qpmin=0 / qpmax=51 / qpstep=4 / ipratio=1.40 / pbratio=1.30
Default : Yes
Forced : No
Color range : Limited
Color primaries : BT.709
Transfer characteristics : BT.709
Matrix coefficients : BT.709

Audio
ID : 2
Format : AAC LC SBR
Format/Info : Advanced Audio Codec Low Complexity with Spectral Band Replication
Commercial name : HE-AAC
Format settings : NBC
Codec ID : A_AAC-5
Duration : 1 h 38 min
Bit rate : 256 kb/s
Channel(s) : 6 channels
Channel layout : C L R Ls Rs LFE
Sampling rate : 48.0 kHz
Frame rate : 23.438 FPS (2048 SPF)
Compression mode : Lossy
Stream size : 180 MiB (12%)
Language : English
Default : Yes
Forced : No

Text
ID : 3
Format : ASS
Codec ID : S_TEXT/ASS
Codec ID/Info : Advanced Sub Station Alpha
Duration : 4 s 500 ms
Bit rate : 149 b/s
Count of elements : 1
Compression mode : Lossless
Stream size : 84.0 Bytes (0%)
Default : Yes
Forced : No

(He/Him) He's BvSRips. I dedicate myself to sharing files on this blog for free. But it is difficult to maintain the links online for a long time, they are denounced and deleted, reuploading costs more work, that is why a section for VIP users was created, where they can download all the files published 100% in MEGA, as premium, without spend more. I would greatly appreciate your collaboration so that this blog remains online for a longer time.

BUY VIP HERE

You may also like...

2 Responses

  1. Julius says:

    Hay Admin, could you please get rid of cloudflare ? It’s never ending trail of captchas, one after another. It’s impossible to get on the site.

    • megaddl says:

      When I deactivate cloudflare, 2 things happen:

      Site becomes unstable and crashes, goes offline.
      And the other thing is that there are a variety of websites that copy the content with a robot, having cloudflare we avoid that.

      I would recommend using Chromium browser.

Leave a Reply

Your email address will not be published. Required fields are marked *