The Twilight Zone All Season | 720p & 1080p WEBRip x265-BvS

The-Twilight-Zone

Jordan Peele hosts and narrates a revival of the series which began in 1959 and explores tales of people confronted with the mysterious unexplored regions of the fifth dimension — that place that is everywhere, yet nowhere, the ground between all that is known and what is beyond understanding — a place known as “The Twilight Zone.”

Links: HOMEPAGE – iMDB

DOWNLOAD

VIP (GOOGLE DRIVE)

This content is reserved for registered users. Sign up here o login to be able to see it.

FREE

NFO

WEBRip.x264-ION10

General
Complete name : D:\HDFRAEN2155\The.Twilight.Zone.2019.S02E01.WEBRip.x264-ION10.mp4
Format : MPEG-4
Format profile : Base Media
Codec ID : isom (isom/iso2/avc1/mp41)
File size : 420 MiB
Duration : 43 min 8 s
Overall bit rate : 1 362 kb/s
Movie name : The.Twilight.Zone.2019.S02E01.WEBRip.x264-ION10
Encoded date : UTC 2020-06-26 06:41:33
Tagged date : UTC 2020-06-26 06:41:33
Writing application : Lavf58.0.101
Comment : The.Twilight.Zone.2019.S02E01.WEBRip.x264-ION10

Video
ID : 1
Format : AVC
Format/Info : Advanced Video Codec
Format profile : [email protected]
Format settings : CABAC / 5 Ref Frames
Format settings, CABAC : Yes
Format settings, Reference frames : 5 frames
Codec ID : avc1
Codec ID/Info : Advanced Video Coding
Duration : 43 min 8 s
Bit rate : 1 100 kb/s
Width : 720 pixels
Height : 400 pixels
Display aspect ratio : 16:9
Frame rate mode : Constant
Frame rate : 24.000 FPS
Color space : YUV
Chroma subsampling : 4:2:0
Bit depth : 8 bits
Scan type : Progressive
Bits/(Pixel*Frame) : 0.159
Stream size : 340 MiB (81%)
Title : The.Twilight.Zone.2019.S02E01.WEBRip.x264-ION10
Writing library : x264 core 148 r2795M aaa9aa8
Encoding settings : cabac=1 / ref=5 / deblock=1:-1:-1 / analyse=0x3:0x113 / me=umh / subme=9 / psy=1 / psy_rd=1.00:0.15 / mixed_ref=1 / me_range=16 / chroma_me=1 / trellis=2 / 8x8dct=1 / cqm=0 / deadzone=21,11 / fast_pskip=1 / chroma_qp_offset=-3 / threads=24 / lookahead_threads=2 / sliced_threads=0 / nr=0 / decimate=1 / interlaced=0 / bluray_compat=0 / constrained_intra=0 / bframes=3 / b_pyramid=2 / b_adapt=2 / b_bias=0 / direct=3 / weightb=1 / open_gop=0 / weightp=2 / keyint=250 / keyint_min=24 / scenecut=40 / intra_refresh=0 / rc_lookahead=50 / rc=abr / mbtree=1 / bitrate=1100 / ratetol=1.0 / qcomp=0.60 / qpmin=0 / qpmax=69 / qpstep=4 / ip_ratio=1.40 / aq=1:1.00
Encoded date : UTC 2020-06-26 06:41:33
Tagged date : UTC 2020-06-26 06:41:33
Codec configuration box : avcC

Audio
ID : 2
Format : AAC LC
Format/Info : Advanced Audio Codec Low Complexity
Codec ID : mp4a-40-2
Duration : 43 min 8 s
Bit rate mode : Constant
Bit rate : 256 kb/s
Channel(s) : 2 channels
Channel layout : L R
Sampling rate : 48.0 kHz
Frame rate : 46.875 FPS (1024 SPF)
Compression mode : Lossy
Stream size : 79.0 MiB (19%)
Title : The.Twilight.Zone.2019.S02E01.WEBRip.x264-ION10
Language : English
Default : Yes
Alternate group : 1
Encoded date : UTC 2020-06-26 06:41:33
Tagged date : UTC 2020-06-26 06:41:33

720p.x265-BvS

General
ID única : 125186959300851883578962069987400782334 (0x5E2E21A093319B305A926A950CBE91FE)
Nombre completo : The.twilight.zone.2019.s02e01.meet.in.the.middle.720p.amzn.web-dl.x265-BvS.mkv
Formato : Matroska
Formato de la versión : Version 4
Tamaño de archivo : 173 MiB
Duración : 43 min 8 s
Tasa de bits general : 559 kb/s
Película : BvSRips
Fecha de codificación : UTC 2020-07-06 18:18:17
Aplicación de codifición : mkvmerge v41.0.0 (‘Smarra’) 32-bit
Librería de codificación : libebml v1.3.9 + libmatroska v1.5.2

Vídeo
ID : 1
Formato : HEVC
Formato/Info : High Efficiency Video Coding
Formato del perfil : [email protected]@Main
ID códec : V_MPEGH/ISO/HEVC
Duración : 43 min 8 s
Tasa de bits : 430 kb/s
Ancho : 1 280 píxeles
Alto : 720 píxeles
Relación de aspecto : 16:9
Modo velocidad fotogramas : Constante
Velocidad de fotogramas : 24,000 FPS
Espacio de color : YUV
Submuestreo croma : 4:2:0
Profundidad bits : 8 bits
Bits/(píxel*fotograma) : 0.019
Tamaño de pista : 133 MiB (77%)
Librería de codificación : x265 1.4:[Windows][GCC 4.7.0][32 bit] Opciones de codificación : wpp / ctu=64 / tu-intra-depth=1 / tu-inter-depth=1 / me=1 / subme=2 / merange=57 / no-rect / no-amp / max-merge=2 / temporal-mvp / early-skip / no-fast-cbf / rdpenalty=0 / no-tskip / no-tskip-fast / strong-intra-smoothing / no-lossless / no-cu-lossless / no-constrained-intra / fast-intra / open-gop / interlace=0 / keyint=240 / min-keyint=24 / scenecut=40 / rc-lookahead=15 / bframes=4 / bframe-bias=0 / b-adapt=0 / ref=1 / weightp / no-weightb / aq-mode=0 / aq-strength=0.00 / cbqpoffs=0 / crqpoffs=0 / rd=2 / psy-rd=0.00 / psy-rdoq=0.00 / signhide / lft / sao / no-sao-non-deblock / b-pyramid / no-cutree / rc=crf / crf=25.0 / qcomp=0.60 / qpmin=0 / qpmax=51 / qpstep=4 / ipratio=1.40 / pbratio=1.30
Default : Sí
Forced : No
Rango de color : Limited
Colores primarios : BT.709
Características transferencia : BT.709
Coeficientes matriz : BT.709

Audio
ID : 2
Formato : AAC LC SBR
Formato/Info : Advanced Audio Codec Low Complexity with Spectral Band Replication
Nombre comercial : HE-AAC
Ajustes del formato : NBC
ID códec : A_AAC-5
Duración : 43 min 8 s
Tasa de bits : 128 kb/s
Canal(es) : 2 canales
ChannelLayout : L R
Velocidad de muestreo : 44,1 kHz
Velocidad de fotogramas : 21,533 FPS (2048 SPF)
Modo de compresión : Con pérdida
Retraso relativo al vídeo : -114 ms
Tamaño de pista : 39,5 MiB (23%)
Idioma : Inglés
Default : Sí
Forced : No

Texto
ID : 3
Formato : ASS
ID códec : S_TEXT/ASS
ID códec/Info : Advanced Sub Station Alpha
Duración : 4 s 500 ms
Tasa de bits : 149 b/s
ElementCount : 1
Modo de compresión : Sin pérdida
Tamaño de pista : 84,0 Bytes (0%)
Default : Sí
Forced : No

1080p.x265-BvS

General
Unique ID : 57321934755627694783530280571478020501 (0x2B1FCD95720CCDA5DEB789A651D91195)
Complete name : The.Twilight.Zone.2019.s02e01.1080p.web.x265-BvS.mkv
Format : Matroska
Format version : Version 4
File size : 340 MiB
Duration : 43 min 8 s
Overall bit rate : 1 102 kb/s
Movie name : BvSRips
Encoded date : UTC 2020-06-29 04:11:08
Writing application : mkvmerge v46.0.0 (‘No Deeper Escape’) 64-bit
Writing library : libebml v1.3.10 + libmatroska v1.5.2

Video
ID : 1
Format : HEVC
Format/Info : High Efficiency Video Coding
Format profile : [email protected]@Main
Codec ID : V_MPEGH/ISO/HEVC
Duration : 43 min 8 s
Bit rate : 844 kb/s
Width : 1 920 pixels
Height : 1 080 pixels
Display aspect ratio : 16:9
Frame rate mode : Constant
Frame rate : 23.976 (24000/1001) FPS
Color space : YUV
Chroma subsampling : 4:2:0
Bit depth : 8 bits
Bits/(Pixel*Frame) : 0.017
Stream size : 260 MiB (77%)
Writing library : x265 1.5:[Windows][GCC 4.7.0][32 bit] Encoding settings : wpp / ctu=64 / tu-intra-depth=1 / tu-inter-depth=1 / me=1 / subme=2 / merange=57 / no-rect / no-amp / max-merge=2 / temporal-mvp / early-skip / no-fast-cbf / rdpenalty=0 / no-tskip / no-tskip-fast / strong-intra-smoothing / no-lossless / no-cu-lossless / no-constrained-intra / fast-intra / open-gop / interlace=0 / keyint=240 / min-keyint=24 / scenecut=40 / rc-lookahead=15 / bframes=4 / bframe-bias=0 / b-adapt=0 / ref=1 / weightp / no-weightb / aq-mode=0 / aq-strength=0.00 / cbqpoffs=0 / crqpoffs=0 / rd=2 / psy-rd=0.00 / psy-rdoq=0.00 / signhide / lft / sao / no-sao-non-deblock / b-pyramid / no-cutree / rc=crf / crf=25.0 / qcomp=0.60 / qpmin=0 / qpmax=51 / qpstep=4 / ipratio=1.40 / pbratio=1.30
Default : Yes
Forced : No
Color range : Limited
Color primaries : BT.709
Transfer characteristics : BT.709
Matrix coefficients : BT.709

Audio
ID : 2
Format : AAC LC SBR
Format/Info : Advanced Audio Codec Low Complexity with Spectral Band Replication
Commercial name : HE-AAC
Format settings : NBC
Codec ID : A_AAC-5
Duration : 43 min 8 s
Bit rate : 256 kb/s
Channel(s) : 6 channels
Channel layout : C L R Ls Rs LFE
Sampling rate : 48.0 kHz
Frame rate : 23.438 FPS (2048 SPF)
Compression mode : Lossy
Stream size : 79.0 MiB (23%)
Language : English
Default : Yes
Forced : No

Text
ID : 3
Format : ASS
Codec ID : S_TEXT/ASS
Codec ID/Info : Advanced Sub Station Alpha
Duration : 4 s 500 ms
Bit rate : 149 b/s
Count of elements : 1
Compression mode : Lossless
Stream size : 84.0 Bytes (0%)
Default : Yes
Forced : No

Leave a Reply

Your email address will not be published. Required fields are marked *