The Shape of Water (2017) 2160p BluRay x265 HEVC 10bit HDR AAC 5.1 Tigole [G.DRIVE]

The-Shape-of-Water-4k

In 1954, a U.S. Marshal investigates the disappearance of a murderer who escaped from a hospital for the criminally insane.

Links: iMDB Trailer

The Shape of Water (2017) 2160p BluRay x265 HEVC 10bit HDR AAC 5.1 Tigole
MKV-HEVC | 3840×2076 | ENGLISH | Subs.ENG/FRE/GER/SPA | AAC 5.1 | 12.00GB

This content is reserved for registered users. Sign up here o login to be able to see it.

MEGA – 1FICHIER

NFO

General
Unique ID : 335075081256153527327423522480406144068 (0xFC151CFEAAF098BA74C9912D4C1C2444)
Complete name : The Shape of Water (2017) (2160p BluRay x265 10bit HDR Tigole).mkv
Format : Matroska
Format version : Version 4
File size : 12.0 GiB
Duration : 2 h 3 min
Overall bit rate : 13.9 Mb/s
Movie name : The Shape of Water
Encoded date : UTC 2019-02-27 23:54:38
Writing application : mkvmerge v26.0.0 (‘In The Game’) 64-bit
Writing library : libebml v1.3.6 + libmatroska v1.4.9

Video
ID : 1
Format : HEVC
Format/Info : High Efficiency Video Coding
Format profile : Main [email protected]@Main
HDR format : SMPTE ST 2086, HDR10 compatible
Codec ID : V_MPEGH/ISO/HEVC
Duration : 2 h 3 min
Bit rate : 13.2 Mb/s
Width : 3 840 pixels
Height : 2 076 pixels
Display aspect ratio : 1.85:1
Frame rate mode : Constant
Frame rate : 23.976 (24000/1001) FPS
Color space : YUV
Chroma subsampling : 4:2:0
Bit depth : 10 bits
Bits/(Pixel*Frame) : 0.069
Stream size : 11.4 GiB (95%)
Writing library : x265 2.9+14-3023bd8b05c0:[Windows][GCC 8.2.1][64 bit] 10bit
Encoding settings : cpuid=1111039 / frame-threads=3 / numa-pools=8 / wpp / no-pmode / no-pme / no-psnr / no-ssim / log-level=2 / input-csp=1 / input-res=3840×2076 / interlace=0 / total-frames=177409 / level-idc=0 / high-tier=1 / uhd-bd=0 / ref=4 / no-allow-non-conformance / repeat-headers / annexb / no-aud / no-hrd / info / hash=0 / no-temporal-layers / open-gop / min-keyint=23 / keyint=250 / gop-lookahead=0 / bframes=8 / b-adapt=2 / b-pyramid / bframe-bias=0 / rc-lookahead=25 / lookahead-slices=4 / scenecut=40 / radl=0 / no-splice / no-intra-refresh / ctu=64 / min-cu-size=8 / rect / no-amp / max-tu-size=32 / tu-inter-depth=1 / tu-intra-depth=1 / limit-tu=0 / rdoq-level=2 / dynamic-rd=0.00 / no-ssim-rd / signhide / no-tskip / nr-intra=0 / nr-inter=0 / no-constrained-intra / strong-intra-smoothing / max-merge=3 / limit-refs=3 / limit-modes / me=3 / subme=3 / merange=57 / temporal-mvp / weightp / no-weightb / no-analyze-src-pics / deblock=0:0 / sao / no-sao-non-deblock / rd=4 / no-early-skip / rskip / no-fast-intra / no-tskip-fast / no-cu-lossless / no-b-intra / no-splitrd-skip / rdpenalty=0 / psy-rd=2.00 / psy-rdoq=1.00 / no-rd-refine / no-lossless / cbqpoffs=0 / crqpoffs=0 / rc=crf / crf=16.0 / qcomp=0.60 / qpstep=4 / stats-write=0 / stats-read=0 / ipratio=1.40 / pbratio=1.30 / aq-mode=2 / aq-strength=1.00 / cutree / zone-count=0 / no-strict-cbr / qg-size=32 / no-rc-grain / qpmax=69 / qpmin=0 / no-const-vbv / sar=0 / overscan=0 / videoformat=5 / range=0 / colorprim=9 / transfer=16 / colormatrix=9 / chromaloc=0 / display-window=0 / master-display=G(13250,34500)B(7500,3000)R(34000,16000)WP(15635,16450)L(10000000,50) / max-cll=0,0 / min-luma=0 / max-luma=1023 / log2-max-poc-lsb=8 / vui-timing-info / vui-hrd-info / slices=1 / no-opt-qp-pps / no-opt-ref-list-length-pps / no-multi-pass-opt-rps / scenecut-bias=0.05 / no-opt-cu-delta-qp / aq-motion / hdr / hdr-opt / no-dhdr10-opt / no-idr-recovery-sei / analysis-reuse-level=5 / scale-factor=0 / refine-intra=0 / refine-inter=0 / refine-mv=0 / no-limit-sao / ctu-info=0 / no-lowpass-dct / refine-mv-type=0 / copy-pic=1 / max-ausize-factor=1.0 / no-dynamic-refine / no-single-sei
Default : Yes
Forced : No
Color range : Limited
Color primaries : BT.2020
Transfer characteristics : PQ
Matrix coefficients : BT.2020 non-constant
Mastering display color primaries : Display P3
Mastering display luminance : min: 0.0050 cd/m2, max: 1000 cd/m2

Audio
ID : 2
Format : AAC LC
Format/Info : Advanced Audio Codec Low Complexity
Codec ID : A_AAC-2
Duration : 2 h 3 min
Bit rate : 648 kb/s
Channel(s) : 6 channels
Channel layout : C L R Ls Rs LFE
Sampling rate : 48.0 kHz
Frame rate : 46.875 FPS (1024 SPF)
Compression mode : Lossy
Delay relative to video : 20 ms
Stream size : 572 MiB (5%)
Language : English
Default : Yes
Forced : No

Text #1
ID : 3
Format : VobSub
Muxing mode : zlib
Codec ID : S_VOBSUB
Codec ID/Info : Picture based subtitle format used on DVDs
Duration : 2 h 2 min
Bit rate : 7 103 b/s
Count of elements : 1928
Stream size : 6.25 MiB (0%)
Language : English
Default : No
Forced : No

Text #2
ID : 4
Format : VobSub
Muxing mode : zlib
Codec ID : S_VOBSUB
Codec ID/Info : Picture based subtitle format used on DVDs
Duration : 1 h 47 min
Bit rate : 397 b/s
Count of elements : 169
Stream size : 312 KiB (0%)
Title : Forced
Language : English
Default : No
Forced : Yes

Text #3
ID : 5
Format : VobSub
Muxing mode : zlib
Codec ID : S_VOBSUB
Codec ID/Info : Picture based subtitle format used on DVDs
Duration : 2 h 1 min
Bit rate : 4 993 b/s
Count of elements : 1413
Stream size : 4.34 MiB (0%)
Language : Chinese
Default : No
Forced : No

Text #4
ID : 6
Format : VobSub
Muxing mode : zlib
Codec ID : S_VOBSUB
Codec ID/Info : Picture based subtitle format used on DVDs
Duration : 2 h 1 min
Bit rate : 6 748 b/s
Count of elements : 1395
Stream size : 5.87 MiB (0%)
Language : Czech
Default : No
Forced : No

Text #5
ID : 7
Format : VobSub
Muxing mode : zlib
Codec ID : S_VOBSUB
Codec ID/Info : Picture based subtitle format used on DVDs
Duration : 2 h 1 min
Bit rate : 6 994 b/s
Count of elements : 996
Stream size : 6.08 MiB (0%)
Language : Danish
Default : No
Forced : No

Text #6
ID : 8
Format : VobSub
Muxing mode : zlib
Codec ID : S_VOBSUB
Codec ID/Info : Picture based subtitle format used on DVDs
Duration : 2 h 1 min
Bit rate : 6 159 b/s
Count of elements : 1149
Stream size : 5.35 MiB (0%)
Language : Dutch
Default : No
Forced : No

Text #7
ID : 9
Format : VobSub
Muxing mode : zlib
Codec ID : S_VOBSUB
Codec ID/Info : Picture based subtitle format used on DVDs
Duration : 2 h 1 min
Bit rate : 6 596 b/s
Count of elements : 1383
Stream size : 5.73 MiB (0%)
Language : Finnish
Default : No
Forced : No

Text #8
ID : 10
Format : VobSub
Muxing mode : zlib
Codec ID : S_VOBSUB
Codec ID/Info : Picture based subtitle format used on DVDs
Duration : 2 h 1 min
Bit rate : 4 420 b/s
Count of elements : 1238
Stream size : 3.84 MiB (0%)
Language : French
Default : No
Forced : No

Text #9
ID : 11
Format : VobSub
Muxing mode : zlib
Codec ID : S_VOBSUB
Codec ID/Info : Picture based subtitle format used on DVDs
Duration : 2 h 1 min
Bit rate : 5 283 b/s
Count of elements : 1284
Stream size : 4.59 MiB (0%)
Language : German
Default : No
Forced : No

Text #10
ID : 12
Format : VobSub
Muxing mode : zlib
Codec ID : S_VOBSUB
Codec ID/Info : Picture based subtitle format used on DVDs
Duration : 1 h 58 min
Bit rate : 527 b/s
Count of elements : 164
Stream size : 458 KiB (0%)
Title : Forced
Language : German
Default : No
Forced : No

Text #11
ID : 13
Format : VobSub
Muxing mode : zlib
Codec ID : S_VOBSUB
Codec ID/Info : Picture based subtitle format used on DVDs
Duration : 2 h 1 min
Bit rate : 4 924 b/s
Count of elements : 1376
Stream size : 4.29 MiB (0%)
Language : Italian
Default : No
Forced : No

Text #12
ID : 14
Format : VobSub
Muxing mode : zlib
Codec ID : S_VOBSUB
Codec ID/Info : Picture based subtitle format used on DVDs
Duration : 2 h 1 min
Bit rate : 4 307 b/s
Count of elements : 1133
Stream size : 3.74 MiB (0%)
Language : Japanese
Default : No
Forced : No

Text #13
ID : 15
Format : VobSub
Muxing mode : zlib
Codec ID : S_VOBSUB
Codec ID/Info : Picture based subtitle format used on DVDs
Duration : 2 h 1 min
Bit rate : 7 167 b/s
Count of elements : 1363
Stream size : 6.23 MiB (0%)
Language : Norwegian Bokmal
Default : No
Forced : No

Text #14
ID : 16
Format : VobSub
Muxing mode : zlib
Codec ID : S_VOBSUB
Codec ID/Info : Picture based subtitle format used on DVDs
Duration : 2 h 1 min
Bit rate : 5 424 b/s
Count of elements : 1274
Stream size : 4.72 MiB (0%)
Language : Polish
Default : No
Forced : No

Text #15
ID : 17
Format : VobSub
Muxing mode : zlib
Codec ID : S_VOBSUB
Codec ID/Info : Picture based subtitle format used on DVDs
Duration : 2 h 1 min
Bit rate : 5 123 b/s
Count of elements : 1380
Stream size : 4.46 MiB (0%)
Language : Spanish
Default : No
Forced : No

Text #16
ID : 18
Format : VobSub
Muxing mode : zlib
Codec ID : S_VOBSUB
Codec ID/Info : Picture based subtitle format used on DVDs
Duration : 2 h 1 min
Bit rate : 6 799 b/s
Count of elements : 1369
Stream size : 5.91 MiB (0%)
Language : Swedish
Default : No
Forced : No

Menu
00:00:00.000 : en:Chapter 01
00:06:24.467 : en:Chapter 02
00:12:54.774 : en:Chapter 03
00:18:32.986 : en:Chapter 04
00:23:45.257 : en:Chapter 05
00:29:39.652 : en:Chapter 06
00:35:29.836 : en:Chapter 07
00:39:30.534 : en:Chapter 08
00:42:42.059 : en:Chapter 09
00:48:34.036 : en:Chapter 10
00:52:26.601 : en:Chapter 11
00:57:30.196 : en:Chapter 12
01:01:52.458 : en:Chapter 13
01:07:35.551 : en:Chapter 14
01:12:13.495 : en:Chapter 15
01:17:50.791 : en:Chapter 16
01:21:17.122 : en:Chapter 17
01:26:05.910 : en:Chapter 18
01:32:48.479 : en:Chapter 19
01:37:18.541 : en:Chapter 20
01:43:24.114 : en:Chapter 21
01:46:06.443 : en:Chapter 22
01:50:31.625 : en:Chapter 23
01:58:35.274 : en:Chapter 24

We choose a different approach. Will you support it? I am BvSRips, I make my own rips of movies and series in 1080p x265 in reduced size for those users who do not have a high speed internet. We believe that everyone should be able to enjoy TV or movie entertainment, but what if it can't be seen in my country? What if you don't have subtitles? Do I have to pay $ 10 or $ 15 on each streaming platform? That is why this website was born by sharing files on free servers (mega and 1fichier). We do not place advertising or popups because they are intrusive for the user, we want you to enjoy this website. But also the website and the tools used consume an expense that we assume and that now you can support us.You can become a VIP member and download without limit, read more here. I hope I can count on your help.

You may also like...

Leave a Reply

Your email address will not be published. Required fields are marked *