The Mask of Zorro (1998) 2160p BluRay x265 HEVC 10bit HDR AAC 7.1 Tigole [G.DRIVE]

The-Mask-of-Zorro-(1998)-2160p-BluRay-x265-HEVC-10bit-HDR-AAC-7.1-Tigole
A young thief, seeking revenge for the death of his brother, is trained by the once great, but aged Zorro, who also pursues vengeance of his own.

Links: iMDB Trailer

The Mask of Zorro (1998) 2160p BluRay x265 HEVC 10bit HDR AAC 7.1 Tigole
MKV-HEVC | 3840×1600 | English | Subs.ENG/FRE/GER/SPA | AAC 7.1 | 18.80GB

This content is reserved for registered users. Sign up here o login to be able to see it.

MEGA – 1FICHIER

NFO

General
Unique ID : 324068239015134311445698144949884222533 (0xF3CD45C6202FC81F3302655B16C8FC45)
Complete name : The Mask of Zorro (1998) (2160p BluRay x265 10bit HDR Tigole).mkv
Format : Matroska
Format version : Version 4
File size : 18.8 GiB
Duration : 2 h 17 min
Overall bit rate : 19.6 Mb/s
Movie name : Mask of Zorro
Encoded date : UTC 2020-05-31 00:03:38
Writing application : mkvmerge v38.0.0 (‘The Silent Type’) 64-bit
Writing library : libebml v1.3.9 + libmatroska v1.5.2

Video
ID : 1
Format : HEVC
Format/Info : High Efficiency Video Coding
Format profile : Main [email protected]@Main
HDR format : SMPTE ST 2086, HDR10 compatible
Codec ID : V_MPEGH/ISO/HEVC
Duration : 2 h 17 min
Bit rate : 18.5 Mb/s
Width : 3 840 pixels
Height : 1 600 pixels
Display aspect ratio : 2.40:1
Frame rate mode : Constant
Frame rate : 23.976 (24000/1001) FPS
Color space : YUV
Chroma subsampling : 4:2:0
Bit depth : 10 bits
Bits/(Pixel*Frame) : 0.125
Stream size : 17.8 GiB (94%)
Writing library : x265 3.2+23-52135ffd9bcd:[Windows][GCC 9.2.0][64 bit] 10bit
Encoding settings : cpuid=1111039 / frame-threads=3 / numa-pools=8 / wpp / no-pmode / no-pme / no-psnr / no-ssim / log-level=2 / input-csp=1 / input-res=3840×1600 / interlace=0 / total-frames=197928 / level-idc=0 / high-tier=1 / uhd-bd=0 / ref=4 / no-allow-non-conformance / repeat-headers / annexb / no-aud / no-hrd / info / hash=0 / no-temporal-layers / open-gop / min-keyint=23 / keyint=250 / gop-lookahead=0 / bframes=4 / b-adapt=2 / b-pyramid / bframe-bias=0 / rc-lookahead=25 / lookahead-slices=4 / scenecut=40 / hist-scenecut=0 / radl=0 / no-splice / no-intra-refresh / ctu=64 / min-cu-size=8 / rect / no-amp / max-tu-size=32 / tu-inter-depth=1 / tu-intra-depth=1 / limit-tu=0 / rdoq-level=2 / dynamic-rd=0.00 / no-ssim-rd / signhide / no-tskip / nr-intra=0 / nr-inter=0 / no-constrained-intra / strong-intra-smoothing / max-merge=3 / limit-refs=3 / limit-modes / me=3 / subme=3 / merange=57 / temporal-mvp / no-frame-dup / no-hme / weightp / no-weightb / no-analyze-src-pics / deblock=0:0 / no-sao / no-sao-non-deblock / rd=4 / selective-sao=0 / no-early-skip / rskip / no-fast-intra / no-tskip-fast / no-cu-lossless / no-b-intra / no-splitrd-skip / rdpenalty=0 / psy-rd=2.00 / psy-rdoq=1.00 / no-rd-refine / no-lossless / cbqpoffs=0 / crqpoffs=0 / rc=abr / bitrate=18500 / qcomp=0.60 / qpstep=4 / stats-write=0 / stats-read=2 / cplxblur=20.0 / qblur=0.5 / ipratio=1.40 / pbratio=1.30 / aq-mode=2 / aq-strength=1.00 / cutree / zone-count=0 / no-strict-cbr / qg-size=32 / no-rc-grain / qpmax=69 / qpmin=0 / no-const-vbv / sar=0 / overscan=0 / videoformat=5 / range=0 / colorprim=9 / transfer=16 / colormatrix=9 / chromaloc=0 / display-window=0 / master-display=G(13250,34500)B(7500,3000)R(34000,16000)WP(15635,16450)L(40000000,50) / cll=10000,2179 / min-luma=0 / max-luma=1023 / log2-max-poc-lsb=8 / vui-timing-info / vui-hrd-info / slices=1 / no-opt-qp-pps / no-opt-ref-list-length-pps / no-multi-pass-opt-rps / scenecut-bias=0.05 / hist-threshold=0.01 / no-opt-cu-delta-qp / aq-motion / hdr / hdr-opt / no-dhdr10-opt / no-idr-recovery-sei / analysis-reuse-level=5 / scale-factor=0 / refine-intra=0 / refine-inter=0 / refine-mv=1 / refine-ctu-distortion=0 / no-limit-sao / ctu-info=0 / no-lowpass-dct / refine-analysis-type=0 / copy-pic=1 / max-ausize-factor=1.0 / no-dynamic-refine / no-single-sei / no-hevc-aq / no-svt / no-field / qp-adaptation-range=1.00 / no-scenecut-aware-qp
Default : Yes
Forced : No
Color range : Limited
Color primaries : BT.2020
Transfer characteristics : PQ
Matrix coefficients : BT.2020 non-constant
Mastering display color primaries : Display P3
Mastering display luminance : min: 0.0050 cd/m2, max: 4000 cd/m2
Maximum Content Light Level : 10000 cd/m2
Maximum Frame-Average Light Level : 2179 cd/m2

Audio
ID : 2
Format : AAC LC
Format/Info : Advanced Audio Codec Low Complexity
Codec ID : A_AAC-2
Duration : 2 h 17 min
Bit rate : 1 032 kb/s
Channel(s) : 8 channels
Channel layout : C L R Ls Rs Lb Rb LFE
Sampling rate : 48.0 kHz
Frame rate : 46.875 FPS (1024 SPF)
Compression mode : Lossy
Delay relative to video : 20 ms
Stream size : 1 015 MiB (5%)
Language : English
Default : Yes
Forced : No

Text #1
ID : 3
Format : VobSub
Muxing mode : zlib
Codec ID : S_VOBSUB
Codec ID/Info : Picture based subtitle format used on DVDs
Duration : 2 h 14 min
Bit rate : 6 447 b/s
Count of elements : 1253
Stream size : 6.19 MiB (0%)
Language : English
Default : No
Forced : No

Text #2
ID : 4
Format : VobSub
Muxing mode : zlib
Codec ID : S_VOBSUB
Codec ID/Info : Picture based subtitle format used on DVDs
Duration : 5 s 377 ms
Bit rate : 17.1 kb/s
Count of elements : 2
Stream size : 11.2 KiB (0%)
Title : Forced
Language : English
Default : No
Forced : Yes

Text #3
ID : 5
Format : VobSub
Muxing mode : zlib
Codec ID : S_VOBSUB
Codec ID/Info : Picture based subtitle format used on DVDs
Duration : 2 h 9 min
Bit rate : 2 601 b/s
Count of elements : 686
Stream size : 2.40 MiB (0%)
Language : Arabic
Default : No
Forced : No

Text #4
ID : 6
Format : VobSub
Muxing mode : zlib
Codec ID : S_VOBSUB
Codec ID/Info : Picture based subtitle format used on DVDs
Duration : 2 h 16 min
Bit rate : 3 915 b/s
Count of elements : 777
Stream size : 3.82 MiB (0%)
Language : Chinese
Default : No
Forced : No

Text #5
ID : 7
Format : VobSub
Muxing mode : zlib
Codec ID : S_VOBSUB
Codec ID/Info : Picture based subtitle format used on DVDs
Duration : 2 h 16 min
Bit rate : 4 311 b/s
Count of elements : 783
Stream size : 4.21 MiB (0%)
Language : Croatian
Default : No
Forced : No

Text #6
ID : 8
Format : VobSub
Muxing mode : zlib
Codec ID : S_VOBSUB
Codec ID/Info : Picture based subtitle format used on DVDs
Duration : 2 h 9 min
Bit rate : 4 668 b/s
Count of elements : 778
Stream size : 4.31 MiB (0%)
Language : Czech
Default : No
Forced : No

Text #7
ID : 9
Format : VobSub
Muxing mode : zlib
Codec ID : S_VOBSUB
Codec ID/Info : Picture based subtitle format used on DVDs
Duration : 2 h 9 min
Bit rate : 4 687 b/s
Count of elements : 682
Stream size : 4.33 MiB (0%)
Language : Danish
Default : No
Forced : No

Text #8
ID : 10
Format : VobSub
Muxing mode : zlib
Codec ID : S_VOBSUB
Codec ID/Info : Picture based subtitle format used on DVDs
Duration : 2 h 16 min
Bit rate : 4 785 b/s
Count of elements : 712
Stream size : 4.67 MiB (0%)
Language : Dutch
Default : No
Forced : No

Text #9
ID : 11
Format : VobSub
Muxing mode : zlib
Codec ID : S_VOBSUB
Codec ID/Info : Picture based subtitle format used on DVDs
Duration : 2 h 8 min
Bit rate : 4 897 b/s
Count of elements : 681
Stream size : 4.52 MiB (0%)
Language : Finnish
Default : No
Forced : No

Text #10
ID : 12
Format : VobSub
Muxing mode : zlib
Codec ID : S_VOBSUB
Codec ID/Info : Picture based subtitle format used on DVDs
Duration : 2 h 16 min
Bit rate : 5 117 b/s
Count of elements : 835
Stream size : 5.00 MiB (0%)
Language : French
Default : No
Forced : No

Text #11
ID : 13
Format : VobSub
Muxing mode : zlib
Codec ID : S_VOBSUB
Codec ID/Info : Picture based subtitle format used on DVDs
Duration : 2 h 9 min
Bit rate : 5 700 b/s
Count of elements : 773
Stream size : 5.26 MiB (0%)
Language : German
Default : No
Forced : No

Text #12
ID : 14
Format : VobSub
Muxing mode : zlib
Codec ID : S_VOBSUB
Codec ID/Info : Picture based subtitle format used on DVDs
Duration : 18 min 47 s
Bit rate : 577 b/s
Count of elements : 12
Stream size : 79.4 KiB (0%)
Title : Forced
Language : German
Default : No
Forced : No

Text #13
ID : 15
Format : VobSub
Muxing mode : zlib
Codec ID : S_VOBSUB
Codec ID/Info : Picture based subtitle format used on DVDs
Duration : 2 h 9 min
Bit rate : 4 884 b/s
Count of elements : 739
Stream size : 4.52 MiB (0%)
Language : Greek
Default : No
Forced : No

Text #14
ID : 16
Format : VobSub
Muxing mode : zlib
Codec ID : S_VOBSUB
Codec ID/Info : Picture based subtitle format used on DVDs
Duration : 2 h 16 min
Bit rate : 3 674 b/s
Count of elements : 782
Stream size : 3.59 MiB (0%)
Language : Hindi
Default : No
Forced : No

Text #15
ID : 17
Format : VobSub
Muxing mode : zlib
Codec ID : S_VOBSUB
Codec ID/Info : Picture based subtitle format used on DVDs
Duration : 2 h 9 min
Bit rate : 5 172 b/s
Count of elements : 781
Stream size : 4.77 MiB (0%)
Language : Hungarian
Default : No
Forced : No

Text #16
ID : 18
Format : VobSub
Muxing mode : zlib
Codec ID : S_VOBSUB
Codec ID/Info : Picture based subtitle format used on DVDs
Duration : 2 h 9 min
Bit rate : 5 015 b/s
Count of elements : 780
Stream size : 4.63 MiB (0%)
Language : Italian
Default : No
Forced : No

Text #17
ID : 19
Format : VobSub
Muxing mode : zlib
Codec ID : S_VOBSUB
Codec ID/Info : Picture based subtitle format used on DVDs
Duration : 2 h 9 min
Bit rate : 4 621 b/s
Count of elements : 724
Stream size : 4.27 MiB (0%)
Language : Korean
Default : No
Forced : No

Text #18
ID : 20
Format : VobSub
Muxing mode : zlib
Codec ID : S_VOBSUB
Codec ID/Info : Picture based subtitle format used on DVDs
Duration : 2 h 16 min
Bit rate : 4 517 b/s
Count of elements : 705
Stream size : 4.41 MiB (0%)
Language : Norwegian Bokmal
Default : No
Forced : No

Text #19
ID : 21
Format : VobSub
Muxing mode : zlib
Codec ID : S_VOBSUB
Codec ID/Info : Picture based subtitle format used on DVDs
Duration : 2 h 9 min
Bit rate : 5 098 b/s
Count of elements : 768
Stream size : 4.70 MiB (0%)
Language : Polish
Default : No
Forced : No

Text #20
ID : 22
Format : VobSub
Muxing mode : zlib
Codec ID : S_VOBSUB
Codec ID/Info : Picture based subtitle format used on DVDs
Duration : 2 h 9 min
Bit rate : 5 344 b/s
Count of elements : 859
Stream size : 4.94 MiB (0%)
Language : Portuguese
Default : No
Forced : No

Text #21
ID : 23
Format : VobSub
Muxing mode : zlib
Codec ID : S_VOBSUB
Codec ID/Info : Picture based subtitle format used on DVDs
Duration : 2 h 16 min
Bit rate : 4 586 b/s
Count of elements : 782
Stream size : 4.48 MiB (0%)
Language : Romanian
Default : No
Forced : No

Text #22
ID : 24
Format : VobSub
Muxing mode : zlib
Codec ID : S_VOBSUB
Codec ID/Info : Picture based subtitle format used on DVDs
Duration : 2 h 9 min
Bit rate : 4 901 b/s
Count of elements : 776
Stream size : 4.53 MiB (0%)
Language : Russian
Default : No
Forced : No

Text #23
ID : 25
Format : VobSub
Muxing mode : zlib
Codec ID : S_VOBSUB
Codec ID/Info : Picture based subtitle format used on DVDs
Duration : 2 h 16 min
Bit rate : 4 670 b/s
Count of elements : 781
Stream size : 4.56 MiB (0%)
Language : Slovak
Default : No
Forced : No

Text #24
ID : 26
Format : VobSub
Muxing mode : zlib
Codec ID : S_VOBSUB
Codec ID/Info : Picture based subtitle format used on DVDs
Duration : 2 h 16 min
Bit rate : 4 353 b/s
Count of elements : 782
Stream size : 4.25 MiB (0%)
Language : Slovenian
Default : No
Forced : No

Text #25
ID : 27
Format : VobSub
Muxing mode : zlib
Codec ID : S_VOBSUB
Codec ID/Info : Picture based subtitle format used on DVDs
Duration : 2 h 9 min
Bit rate : 4 937 b/s
Count of elements : 727
Stream size : 4.56 MiB (0%)
Language : Spanish
Default : No
Forced : No

Text #26
ID : 28
Format : VobSub
Muxing mode : zlib
Codec ID : S_VOBSUB
Codec ID/Info : Picture based subtitle format used on DVDs
Duration : 2 h 16 min
Bit rate : 4 591 b/s
Count of elements : 763
Stream size : 4.48 MiB (0%)
Language : Swedish
Default : No
Forced : No

Text #27
ID : 29
Format : VobSub
Muxing mode : zlib
Codec ID : S_VOBSUB
Codec ID/Info : Picture based subtitle format used on DVDs
Duration : 2 h 8 min
Bit rate : 5 006 b/s
Count of elements : 777
Stream size : 4.62 MiB (0%)
Language : Thai
Default : No
Forced : No

Text #28
ID : 30
Format : VobSub
Muxing mode : zlib
Codec ID : S_VOBSUB
Codec ID/Info : Picture based subtitle format used on DVDs
Duration : 2 h 9 min
Bit rate : 5 126 b/s
Count of elements : 778
Stream size : 4.73 MiB (0%)
Language : Turkish
Default : No
Forced : No

Menu
00:00:00.000 : en:Chapter 01
00:09:53.384 : en:Chapter 02
00:14:03.884 : en:Chapter 03
00:27:00.285 : en:Chapter 04
00:32:53.888 : en:Chapter 05
00:37:08.434 : en:Chapter 06
00:42:49.233 : en:Chapter 07
00:51:58.198 : en:Chapter 08
01:02:13.062 : en:Chapter 09
01:09:05.766 : en:Chapter 10
01:15:40.661 : en:Chapter 11
01:31:09.630 : en:Chapter 12
01:41:00.012 : en:Chapter 13
01:46:26.129 : en:Chapter 14
01:52:12.016 : en:Chapter 15
02:04:20.119 : en:Chapter 16

We choose a different approach. Will you support it? I am BvSRips, I make my own rips of movies and series in 1080p x265 in reduced size for those users who do not have a high speed internet. We believe that everyone should be able to enjoy TV or movie entertainment, but what if it can't be seen in my country? What if you don't have subtitles? Do I have to pay $ 10 or $ 15 on each streaming platform? That is why this website was born by sharing files on free servers (mega and 1fichier). We do not place advertising or popups because they are intrusive for the user, we want you to enjoy this website. But also the website and the tools used consume an expense that we assume and that now you can support us.You can become a VIP member and download without limit, read more here. I hope I can count on your help.

You may also like...

Leave a Reply

Your email address will not be published. Required fields are marked *