The Fresh Prince of Bel-Air All Season | 720p & 1080p WEBRip x265-BvS

The Fresh Prince of Bel-Air

A wealthy family living in Bel-Air, California, receives a dubious gift from their poorer relations in Philadelphia when Will Smith arrives as The Fresh Prince Of Bel-Air. Will shatters the sophisticated serenity of Bel-Air with his streetwise common sense, much to the dismay of his upper-crust uncle, Philip Banks, Aunt Vivian and three conceited cousins, Carlton, Hilary and Ashley – and butler Geoffrey. As the Banks family opens their home – and their checkbook – to their needy relative, Will adapts easily to their indulgent lifestyle. Yet, he reminds everyone that the simplest pleasures of family life can’t be bought at any price.

Links: HOMEPAGE – TVGUiDE

Note: In English with English Selectable Subtitles

DOWNLOAD

VIP (GOOGLE DRIVE)

This content is reserved for registered users. Sign up here o login to be able to see it.

FREE

  • SEASON 1: 1080p x265 (ONLY VIP)
  • SEASON 2: 720p x265 (ONLY VIP)
  • SEASON 3: 720p x265 (ONLY VIP)
  • SEASON 4: 1080p x265 (ONLY VIP)
  • SEASON 5: 720p x265 (ONLY VIP)
  • SEASON 6: 720p x265 (ONLY VIP)

NFO

WEBRip.x264-ION10

 

720p.x265-BvS

General
Unique ID : 185969936051548329517650887089538967986 (0x8BE881C18F6F21D08E4F5B2B056FA9B2)
Complete name : The.Fresh.Prince.Of.Bel-Air.S03E01.720p.NF.WEB-DL.x265.mkv
Format : Matroska
Format version : Version 4
File size : 109 MiB
Duration : 23 min 10 s
Overall bit rate : 656 kb/s
Encoded date : UTC 2018-12-08 14:21:46
Writing application : mkvmerge v9.9.0 (‘Pick Up’) 64bit
Writing library : libebml v1.3.4 + libmatroska v1.4.5

Video
ID : 3
Format : HEVC
Format/Info : High Efficiency Video Coding
Format profile : [email protected]@Main
Codec ID : V_MPEGH/ISO/HEVC
Duration : 23 min 10 s
Bit rate : 590 kb/s
Width : 960 pixels
Height : 720 pixels
Display aspect ratio : 4:3
Frame rate mode : Constant
Frame rate : 29.970 (30000/1001) FPS
Color space : YUV
Chroma subsampling : 4:2:0 (Type 0)
Bit depth : 8 bits
Bits/(Pixel*Frame) : 0.028
Stream size : 97.8 MiB (90%)
Default : Yes
Forced : No
Color range : Limited
Color primaries : BT.709

Audio
ID : 2
Format : AAC LC SBR
Format/Info : Advanced Audio Codec Low Complexity with Spectral Band Replication
Commercial name : HE-AAC
Format settings : Explicit
Codec ID : A_AAC-2
Duration : 23 min 10 s
Bit rate : 64.0 kb/s
Channel(s) : 2 channels
Channel layout : L R
Sampling rate : 48.0 kHz
Frame rate : 23.438 FPS (2048 SPF)
Compression mode : Lossy
Delay relative to video : -9 ms
Stream size : 10.6 MiB (10%)
Default : Yes
Forced : No

Text
ID : 1
Format : UTF-8
Codec ID : S_TEXT/UTF8
Codec ID/Info : UTF-8 Plain Text
Duration : 23 min 2 s
Bit rate : 78 b/s
Count of elements : 363
Stream size : 13.3 KiB (0%)
Default : Yes
Forced : No

1080p.x265-BvS

General
Unique ID : 203398426022852418790400293877770564190 (0x99051CA79110BF959CA34BC78A1F325E)
Complete name :  The.Fresh.Prince.Of.Bel-Air.S01E01.1080p.NF.WEB-DL.x265.mkv
Format : Matroska
Format version : Version 4
File size : 222 MiB
Duration : 22 min 1 s
Overall bit rate : 1 407 kb/s
Encoded date : UTC 2018-12-02 15:23:23
Writing application : mkvmerge v9.9.0 (‘Pick Up’) 64bit
Writing library : libebml v1.3.4 + libmatroska v1.4.5

Video
ID : 3
Format : HEVC
Format/Info : High Efficiency Video Coding
Format profile : [email protected]@Main
Codec ID : V_MPEGH/ISO/HEVC
Duration : 22 min 1 s
Bit rate : 1 309 kb/s
Width : 1 440 pixels
Height : 1 080 pixels
Display aspect ratio : 4:3
Frame rate mode : Constant
Frame rate : 29.970 (30000/1001) FPS
Color space : YUV
Chroma subsampling : 4:2:0 (Type 0)
Bit depth : 8 bits
Bits/(Pixel*Frame) : 0.028
Stream size : 206 MiB (93%)
Default : Yes
Forced : No
Color range : Limited
Color primaries : BT.709

Audio
ID : 2
Format : AAC LC SBR
Format/Info : Advanced Audio Codec Low Complexity with Spectral Band Replication
Commercial name : HE-AAC
Format settings : Explicit
Codec ID : A_AAC-2
Duration : 22 min 1 s
Bit rate : 96.0 kb/s
Channel(s) : 2 channels
Channel layout : L R
Sampling rate : 48.0 kHz
Frame rate : 23.438 FPS (2048 SPF)
Compression mode : Lossy
Delay relative to video : -9 ms
Stream size : 15.1 MiB (7%)
Default : Yes
Forced : No

Text
ID : 1
Format : UTF-8
Codec ID : S_TEXT/UTF8
Codec ID/Info : UTF-8 Plain Text
Duration : 21 min 57 s
Bit rate : 75 b/s
Count of elements : 282
Stream size : 12.2 KiB (0%)
Default : Yes
Forced : No

Leave a Reply

Your email address will not be published. Required fields are marked *