The Da Vinci Code (2006) (2160p BluRay x265 HEVC 10bit HDR AAC 7.1 Tigole [G.DRIVE]

The-Da-Vinci-Code-(2006)-(2160p-BluRay-x265-HEVC-10bit-HDR-AAC-7.1-Tigole

A murder inside the Louvre, and clues in Da Vinci paintings, lead to the discovery of a religious mystery protected by a secret society for two thousand years, which could shake the foundations of Christianity.

Links: iMDB Trailer

The Da Vinci Code (2006) (2160p BluRay x265 HEVC 10bit HDR AAC 7.1 Tigole
MKV-HEVC | 3840×1608 | ENGLISH | Subs.ENG/FRE/GER/SPA | AAC 7.1 | 19.00GB

This content is reserved for registered users. Sign up here o login to be able to see it. Buy your VIP membership

MEGA – 1FICHIER

NFO

General
Unique ID : 273616485460688561505670935825101707345 (0xCDD89E46766AF47B6F697492E3295851)
Complete name : The Da Vinci Code (2006) (2160p BluRay x265 10bit HDR Tigole).mkv
Format : Matroska
Format version : Version 4
File size : 19.0 GiB
Duration : 2 h 28 min
Overall bit rate : 18.3 Mb/s
Movie name : Da Vinci Code
Encoded date : UTC 2019-03-11 19:56:32
Writing application : mkvmerge v26.0.0 (‘In The Game’) 64-bit
Writing library : libebml v1.3.6 + libmatroska v1.4.9

Video
ID : 1
Format : HEVC
Format/Info : High Efficiency Video Coding
Format profile : Main [email protected]@Main
HDR format : SMPTE ST 2086, HDR10 compatible
Codec ID : V_MPEGH/ISO/HEVC
Duration : 2 h 28 min
Bit rate : 17.5 Mb/s
Width : 3 840 pixels
Height : 1 608 pixels
Display aspect ratio : 2.40:1
Frame rate mode : Constant
Frame rate : 23.976 (24000/1001) FPS
Color space : YUV
Chroma subsampling : 4:2:0
Bit depth : 10 bits
Bits/(Pixel*Frame) : 0.118
Stream size : 18.2 GiB (96%)
Writing library : x265 2.9+14-3023bd8b05c0:[Windows][GCC 8.2.1][64 bit] 10bit
Encoding settings : cpuid=1111039 / frame-threads=3 / numa-pools=8 / wpp / no-pmode / no-pme / no-psnr / no-ssim / log-level=2 / input-csp=1 / input-res=3840×1608 / interlace=0 / total-frames=214008 / level-idc=0 / high-tier=1 / uhd-bd=0 / ref=4 / no-allow-non-conformance / repeat-headers / annexb / no-aud / no-hrd / info / hash=0 / no-temporal-layers / open-gop / min-keyint=23 / keyint=250 / gop-lookahead=0 / bframes=4 / b-adapt=2 / b-pyramid / bframe-bias=0 / rc-lookahead=25 / lookahead-slices=4 / scenecut=40 / radl=0 / no-splice / no-intra-refresh / ctu=64 / min-cu-size=8 / rect / no-amp / max-tu-size=32 / tu-inter-depth=1 / tu-intra-depth=1 / limit-tu=0 / rdoq-level=2 / dynamic-rd=0.00 / no-ssim-rd / signhide / no-tskip / nr-intra=0 / nr-inter=0 / no-constrained-intra / strong-intra-smoothing / max-merge=3 / limit-refs=3 / limit-modes / me=3 / subme=3 / merange=57 / temporal-mvp / weightp / no-weightb / no-analyze-src-pics / deblock=0:0 / sao / no-sao-non-deblock / rd=4 / no-early-skip / rskip / no-fast-intra / no-tskip-fast / no-cu-lossless / no-b-intra / no-splitrd-skip / rdpenalty=0 / psy-rd=2.00 / psy-rdoq=1.00 / no-rd-refine / no-lossless / cbqpoffs=0 / crqpoffs=0 / rc=abr / bitrate=17500 / qcomp=0.60 / qpstep=4 / stats-write=0 / stats-read=2 / cplxblur=20.0 / qblur=0.5 / ipratio=1.40 / pbratio=1.30 / aq-mode=2 / aq-strength=1.00 / cutree / zone-count=0 / no-strict-cbr / qg-size=32 / no-rc-grain / qpmax=69 / qpmin=0 / no-const-vbv / sar=0 / overscan=0 / videoformat=5 / range=0 / colorprim=9 / transfer=16 / colormatrix=9 / chromaloc=0 / display-window=0 / master-display=G(13250,34500)B(7500,3000)R(34000,16000)WP(15635,16450)L(40000000,50) / max-cll=4897,653 / min-luma=0 / max-luma=1023 / log2-max-poc-lsb=8 / vui-timing-info / vui-hrd-info / slices=1 / no-opt-qp-pps / no-opt-ref-list-length-pps / no-multi-pass-opt-rps / scenecut-bias=0.05 / no-opt-cu-delta-qp / aq-motion / hdr / hdr-opt / no-dhdr10-opt / no-idr-recovery-sei / analysis-reuse-level=5 / scale-factor=0 / refine-intra=0 / refine-inter=0 / refine-mv=0 / no-limit-sao / ctu-info=0 / no-lowpass-dct / refine-mv-type=0 / copy-pic=1 / max-ausize-factor=1.0 / no-dynamic-refine / no-single-sei
Default : Yes
Forced : No
Color range : Limited
Color primaries : BT.2020
Transfer characteristics : PQ
Matrix coefficients : BT.2020 non-constant
Mastering display color primaries : Display P3
Mastering display luminance : min: 0.0050 cd/m2, max: 4000 cd/m2
Maximum Content Light Level : 4897 cd/m2
Maximum Frame-Average Light Level : 653 cd/m2

Audio
ID : 2
Format : AAC LC
Format/Info : Advanced Audio Codec Low Complexity
Codec ID : A_AAC-2
Duration : 2 h 28 min
Bit rate : 700 kb/s
Channel(s) : 8 channels
Channel layout : C L R Ls Rs Lb Rb LFE
Sampling rate : 48.0 kHz
Frame rate : 46.875 FPS (1024 SPF)
Compression mode : Lossy
Delay relative to video : 20 ms
Stream size : 745 MiB (4%)
Language : English
Default : Yes
Forced : No

Text #1
ID : 3
Format : VobSub
Muxing mode : zlib
Codec ID : S_VOBSUB
Codec ID/Info : Picture based subtitle format used on DVDs
Duration : 2 h 24 min
Bit rate : 9 830 b/s
Count of elements : 1881
Stream size : 10.2 MiB (0%)
Language : English
Default : No
Forced : No

Text #2
ID : 4
Format : VobSub
Muxing mode : zlib
Codec ID : S_VOBSUB
Codec ID/Info : Picture based subtitle format used on DVDs
Duration : 2 h 4 min
Bit rate : 950 b/s
Count of elements : 169
Stream size : 870 KiB (0%)
Title : Forced
Language : English
Default : No
Forced : Yes

Text #3
ID : 5
Format : VobSub
Muxing mode : zlib
Codec ID : S_VOBSUB
Codec ID/Info : Picture based subtitle format used on DVDs
Duration : 2 h 18 min
Bit rate : 4 412 b/s
Count of elements : 1667
Stream size : 4.36 MiB (0%)
Language : Arabic
Default : No
Forced : No

Text #4
ID : 6
Format : VobSub
Muxing mode : zlib
Codec ID : S_VOBSUB
Codec ID/Info : Picture based subtitle format used on DVDs
Duration : 2 h 18 min
Bit rate : 6 645 b/s
Count of elements : 1658
Stream size : 6.57 MiB (0%)
Language : Chinese
Default : No
Forced : No

Text #5
ID : 7
Format : VobSub
Muxing mode : zlib
Codec ID : S_VOBSUB
Codec ID/Info : Picture based subtitle format used on DVDs
Duration : 2 h 26 min
Bit rate : 8 338 b/s
Count of elements : 1480
Stream size : 8.72 MiB (0%)
Language : Danish
Default : No
Forced : No

Text #6
ID : 8
Format : VobSub
Muxing mode : zlib
Codec ID : S_VOBSUB
Codec ID/Info : Picture based subtitle format used on DVDs
Duration : 2 h 18 min
Bit rate : 8 809 b/s
Count of elements : 1311
Stream size : 8.70 MiB (0%)
Language : Dutch
Default : No
Forced : No

Text #7
ID : 9
Format : VobSub
Muxing mode : zlib
Codec ID : S_VOBSUB
Codec ID/Info : Picture based subtitle format used on DVDs
Duration : 2 h 18 min
Bit rate : 8 066 b/s
Count of elements : 1629
Stream size : 7.97 MiB (0%)
Language : Finnish
Default : No
Forced : No

Text #8
ID : 10
Format : VobSub
Muxing mode : zlib
Codec ID : S_VOBSUB
Codec ID/Info : Picture based subtitle format used on DVDs
Duration : 2 h 26 min
Bit rate : 6 898 b/s
Count of elements : 1584
Stream size : 7.22 MiB (0%)
Language : French
Default : No
Forced : No

Text #9
ID : 11
Format : VobSub
Muxing mode : zlib
Codec ID : S_VOBSUB
Codec ID/Info : Picture based subtitle format used on DVDs
Duration : 2 h 18 min
Bit rate : 9 305 b/s
Count of elements : 1627
Stream size : 9.19 MiB (0%)
Language : German
Default : No
Forced : No

Text #10
ID : 12
Format : VobSub
Muxing mode : zlib
Codec ID : S_VOBSUB
Codec ID/Info : Picture based subtitle format used on DVDs
Duration : 2 h 15 min
Bit rate : 886 b/s
Count of elements : 171
Stream size : 879 KiB (0%)
Title : Forced
Language : German
Default : No
Forced : No

Text #11
ID : 13
Format : VobSub
Muxing mode : zlib
Codec ID : S_VOBSUB
Codec ID/Info : Picture based subtitle format used on DVDs
Duration : 2 h 26 min
Bit rate : 8 813 b/s
Count of elements : 1624
Stream size : 9.24 MiB (0%)
Language : Greek
Default : No
Forced : No

Text #12
ID : 14
Format : VobSub
Muxing mode : zlib
Codec ID : S_VOBSUB
Codec ID/Info : Picture based subtitle format used on DVDs
Duration : 2 h 18 min
Bit rate : 6 359 b/s
Count of elements : 1666
Stream size : 6.28 MiB (0%)
Language : Hebrew
Default : No
Forced : No

Text #13
ID : 15
Format : VobSub
Muxing mode : zlib
Codec ID : S_VOBSUB
Codec ID/Info : Picture based subtitle format used on DVDs
Duration : 2 h 18 min
Bit rate : 8 301 b/s
Count of elements : 1630
Stream size : 8.20 MiB (0%)
Language : Hungarian
Default : No
Forced : No

Text #14
ID : 16
Format : VobSub
Muxing mode : zlib
Codec ID : S_VOBSUB
Codec ID/Info : Picture based subtitle format used on DVDs
Duration : 2 h 18 min
Bit rate : 8 019 b/s
Count of elements : 1594
Stream size : 7.92 MiB (0%)
Language : Italian
Default : No
Forced : No

Text #15
ID : 17
Format : VobSub
Muxing mode : zlib
Codec ID : S_VOBSUB
Codec ID/Info : Picture based subtitle format used on DVDs
Duration : 2 h 26 min
Bit rate : 6 722 b/s
Count of elements : 1593
Stream size : 7.03 MiB (0%)
Language : Japanese
Default : No
Forced : No

Text #16
ID : 18
Format : VobSub
Muxing mode : zlib
Codec ID : S_VOBSUB
Codec ID/Info : Picture based subtitle format used on DVDs
Duration : 2 h 18 min
Bit rate : 5 355 b/s
Count of elements : 1618
Stream size : 5.32 MiB (0%)
Language : Korean
Default : No
Forced : No

Text #17
ID : 19
Format : VobSub
Muxing mode : zlib
Codec ID : S_VOBSUB
Codec ID/Info : Picture based subtitle format used on DVDs
Duration : 2 h 18 min
Bit rate : 7 983 b/s
Count of elements : 1662
Stream size : 7.89 MiB (0%)
Language : Norwegian Bokmal
Default : No
Forced : No

Text #18
ID : 20
Format : VobSub
Muxing mode : zlib
Codec ID : S_VOBSUB
Codec ID/Info : Picture based subtitle format used on DVDs
Duration : 2 h 18 min
Bit rate : 8 824 b/s
Count of elements : 1656
Stream size : 8.72 MiB (0%)
Language : Polish
Default : No
Forced : No

Text #19
ID : 21
Format : VobSub
Muxing mode : zlib
Codec ID : S_VOBSUB
Codec ID/Info : Picture based subtitle format used on DVDs
Duration : 2 h 18 min
Bit rate : 8 600 b/s
Count of elements : 1623
Stream size : 8.55 MiB (0%)
Language : Portuguese
Default : No
Forced : No

Text #20
ID : 22
Format : VobSub
Muxing mode : zlib
Codec ID : S_VOBSUB
Codec ID/Info : Picture based subtitle format used on DVDs
Duration : 2 h 18 min
Bit rate : 9 945 b/s
Count of elements : 1682
Stream size : 9.89 MiB (0%)
Language : Russian
Default : No
Forced : No

Text #21
ID : 23
Format : VobSub
Muxing mode : zlib
Codec ID : S_VOBSUB
Codec ID/Info : Picture based subtitle format used on DVDs
Duration : 2 h 18 min
Bit rate : 8 595 b/s
Count of elements : 1670
Stream size : 8.49 MiB (0%)
Language : Slovak
Default : No
Forced : No

Text #22
ID : 24
Format : VobSub
Muxing mode : zlib
Codec ID : S_VOBSUB
Codec ID/Info : Picture based subtitle format used on DVDs
Duration : 2 h 18 min
Bit rate : 8 787 b/s
Count of elements : 1615
Stream size : 8.68 MiB (0%)
Language : Spanish
Default : No
Forced : No

Text #23
ID : 25
Format : VobSub
Muxing mode : zlib
Codec ID : S_VOBSUB
Codec ID/Info : Picture based subtitle format used on DVDs
Duration : 2 h 26 min
Bit rate : 8 082 b/s
Count of elements : 1332
Stream size : 8.46 MiB (0%)
Language : Swedish
Default : No
Forced : No

Text #24
ID : 26
Format : VobSub
Muxing mode : zlib
Codec ID : S_VOBSUB
Codec ID/Info : Picture based subtitle format used on DVDs
Duration : 2 h 18 min
Bit rate : 7 308 b/s
Count of elements : 1668
Stream size : 7.22 MiB (0%)
Language : Thai
Default : No
Forced : No

Text #25
ID : 27
Format : VobSub
Muxing mode : zlib
Codec ID : S_VOBSUB
Codec ID/Info : Picture based subtitle format used on DVDs
Duration : 2 h 18 min
Bit rate : 9 345 b/s
Count of elements : 1632
Stream size : 9.23 MiB (0%)
Language : Turkish
Default : No
Forced : No

Menu
00:00:00.000 : en:Chapter 01
00:12:54.774 : en:Chapter 02
00:28:56.359 : en:Chapter 03
00:39:59.730 : en:Chapter 04
00:41:40.873 : en:Chapter 05
00:48:21.523 : en:Chapter 06
01:04:42.879 : en:Chapter 07
01:13:04.129 : en:Chapter 08
01:24:31.357 : en:Chapter 09
01:29:25.360 : en:Chapter 10
01:36:27.072 : en:Chapter 11
01:41:42.096 : en:Chapter 12
01:51:43.321 : en:Chapter 13
02:00:03.988 : en:Chapter 14
02:11:26.420 : en:Chapter 15
02:17:03.548 : en:Chapter 16

You may also like...

Leave a Reply

Your email address will not be published. Required fields are marked *