The Big Bang Theory All Season | 720p & 1080p WEBRip x265-BvS

The Big Bang Theory

A woman who moves into an apartment across the hall from two brilliant but socially awkward physicists shows them how little they know about life outside of the laboratory.

Links: HOMEPAGE – iMDB

Note: In English with English Selectable Subtitles

DOWNLOAD

VIP (GOOGLE DRIVE)

This content is reserved for registered users. Sign up here o login to be able to see it.

FREE

  • SEASON 1: 720p x265 (ONLY VIP)
  • SEASON 2: 720p x265 (ONLY VIP)
  • SEASON 3: 720p x265 (ONLY VIP)
  • SEASON 4: 720p x265 (ONLY VIP)
  • SEASON 5: 720p x265 (ONLY VIP)
  • SEASON 6: 720p x265 (ONLY VIP)
  • SEASON 7: 720p x265 (ONLY VIP)
  • SEASON 8: 720p x265 (ONLY VIP)
  • SEASON 9: 720p x265 (ONLY VIP)
  • SEASON 10: 720p x265 (ONLY VIP)
  • SEASON 11: 720p x265 (ONLY VIP)
  • SEASON 12: 720p x265 (ONLY VIP)

NFO

WEBRip.x264-ION10

 

720p.x265-BvS

General
Unique ID : 69771065038201779621082606733869040206 (0x347D6B186368E19E0BADDBD29BC5C24E)
Complete name :  The.Big.Bang.Theory.S01E01.Pilot.720p.BrRip.2CH.x265.HEVC.mkv
Format : Matroska
Format version : Version 4
File size : 158 MiB
Duration : 22 min 58 s
Overall bit rate : 964 kb/s
Movie name : PSArips.com | The.Big.Bang.Theory.S01E01.Pilot.720p.BrRip.2CH.x265.HEVC-PSA
Encoded date : UTC 2020-06-08 13:23:21
Writing application : mkvmerge v47.0.0 (‘Black Flag’) 64-bit
Writing library : libebml v1.3.10 + libmatroska v1.5.2

Video
ID : 1
Format : HEVC
Format/Info : High Efficiency Video Coding
Format profile : [email protected]@Main
Codec ID : V_MPEGH/ISO/HEVC
Duration : 22 min 57 s
Bit rate : 903 kb/s
Width : 1 280 pixels
Height : 720 pixels
Display aspect ratio : 16:9
Frame rate mode : Constant
Frame rate : 23.976 (24000/1001) FPS
Color space : YUV
Chroma subsampling : 4:2:0
Bit depth : 8 bits
Bits/(Pixel*Frame) : 0.041
Stream size : 148 MiB (94%)
Default : Yes
Forced : No

Audio
ID : 2
Format : AAC LC SBR
Format/Info : Advanced Audio Codec Low Complexity with Spectral Band Replication
Commercial name : HE-AAC
Format settings : Explicit
Codec ID : A_AAC-2
Duration : 22 min 58 s
Bit rate : 58.9 kb/s
Channel(s) : 2 channels
Channel layout : L R
Sampling rate : 48.0 kHz
Frame rate : 23.438 FPS (2048 SPF)
Compression mode : Lossy
Delay relative to video : 23 ms
Stream size : 9.67 MiB (6%)
Language : English
Default : Yes
Forced : No

Text
ID : 3
Format : UTF-8
Codec ID : S_TEXT/UTF8
Codec ID/Info : UTF-8 Plain Text
Duration : 22 min 25 s
Bit rate : 94 b/s
Count of elements : 405
Stream size : 15.5 KiB (0%)
Language : English
Default : Yes
Forced : No

1080p.x265-BvS

 

Leave a Reply

Your email address will not be published. Required fields are marked *