The Avengers (2012) 2160p BluRay x265 HEVC 10bit HDR AAC 7.1 Tigole [G.DRIVE]

The Avengers (2012) 2160p BluRay x265 HEVC 10bit HDR AAC 7.1 Tigole

Earth’s mightiest heroes must come together and learn to fight as a team if they are going to stop the mischievous Loki and his alien army from enslaving humanity.

Links: iMDB Trailer

The Avengers (2012) 2160p BluRay x265 HEVC 10bit HDR AAC 7.1 Tigole
MKV-HEVC | 3840×2076 | ENGLISH | Subs.ENG/FRE/SPA | AAC 7.1 | 9.54GB

This content is reserved for registered users. Sign up here o login to be able to see it. Buy your VIP membership

MEGA – 1FICHIER

NFO

General
Unique ID : 122864807337730216959867941845221389629 (0x5C6EE6B22E1169083166D110A2BA353D)
Complete name : The Avengers (2012) (2160p BluRay x265 10bit HDR Tigole).mkv
Format : Matroska
Format version : Version 4
File size : 9.54 GiB
Duration : 2 h 22 min
Overall bit rate : 9 560 kb/s
Encoded date : UTC 2018-08-12 06:46:12
Writing application : mkvmerge v25.0.0 (‘Prog Noir’) 64-bit
Writing library : libebml v1.3.6 + libmatroska v1.4.9

Video
ID : 1
Format : HEVC
Format/Info : High Efficiency Video Coding
Format profile : Main [email protected]@Main
HDR format : SMPTE ST 2086, HDR10 compatible
Codec ID : V_MPEGH/ISO/HEVC
Duration : 2 h 22 min
Bit rate : 8 694 kb/s
Width : 3 840 pixels
Height : 2 076 pixels
Display aspect ratio : 1.85:1
Frame rate mode : Constant
Frame rate : 23.976 (24000/1001) FPS
Color space : YUV
Chroma subsampling : 4:2:0
Bit depth : 10 bits
Bits/(Pixel*Frame) : 0.045
Stream size : 8.68 GiB (91%)
Writing library : x265 2.8+40-0106f9f2f867:[Windows][GCC 7.3.0][64 bit] 10bit
Encoding settings : cpuid=1111039 / frame-threads=3 / numa-pools=8 / wpp / no-pmode / no-pme / no-psnr / no-ssim / log-level=2 / input-csp=1 / input-res=3840×2076 / interlace=0 / total-frames=205611 / level-idc=0 / high-tier=1 / uhd-bd=0 / ref=4 / no-allow-non-conformance / repeat-headers / annexb / no-aud / no-hrd / info / hash=0 / no-temporal-layers / open-gop / min-keyint=23 / keyint=250 / gop-lookahead=0 / bframes=4 / b-adapt=2 / b-pyramid / bframe-bias=0 / rc-lookahead=25 / lookahead-slices=4 / scenecut=40 / radl=0 / no-intra-refresh / ctu=64 / min-cu-size=8 / rect / no-amp / max-tu-size=32 / tu-inter-depth=1 / tu-intra-depth=1 / limit-tu=0 / rdoq-level=2 / dynamic-rd=0.00 / no-ssim-rd / signhide / no-tskip / nr-intra=0 / nr-inter=0 / no-constrained-intra / strong-intra-smoothing / max-merge=3 / limit-refs=3 / limit-modes / me=3 / subme=3 / merange=57 / temporal-mvp / weightp / no-weightb / no-analyze-src-pics / deblock=0:0 / sao / no-sao-non-deblock / rd=4 / no-early-skip / rskip / no-fast-intra / no-tskip-fast / no-cu-lossless / no-b-intra / no-splitrd-skip / rdpenalty=0 / psy-rd=2.00 / psy-rdoq=1.00 / no-rd-refine / no-lossless / cbqpoffs=0 / crqpoffs=0 / rc=crf / crf=18.0 / qcomp=0.60 / qpstep=4 / stats-write=0 / stats-read=0 / ipratio=1.40 / pbratio=1.30 / aq-mode=3 / aq-strength=1.00 / cutree / zone-count=0 / no-strict-cbr / qg-size=32 / no-rc-grain / qpmax=69 / qpmin=0 / no-const-vbv / sar=0 / overscan=0 / videoformat=5 / range=0 / colorprim=9 / transfer=16 / colormatrix=9 / chromaloc=0 / display-window=0 / master-display=G(13250,34500)B(7500,3000)R(34000,16000)WP(15635,16450)L(10000000,1) / max-cll=0,0 / min-luma=0 / max-luma=1023 / log2-max-poc-lsb=8 / vui-timing-info / vui-hrd-info / slices=1 / no-opt-qp-pps / no-opt-ref-list-length-pps / no-multi-pass-opt-rps / scenecut-bias=0.05 / no-opt-cu-delta-qp / aq-motion / hdr / hdr-opt / no-dhdr10-opt / no-idr-recovery-sei / analysis-reuse-level=5 / scale-factor=0 / refine-intra=0 / refine-inter=0 / refine-mv=0 / no-limit-sao / ctu-info=0 / no-lowpass-dct / refine-mv-type=0 / copy-pic=1 / max-ausize-factor=1.0 / no-dynamic-refine / no-single-sei
Default : Yes
Forced : No
Color range : Limited
Color primaries : BT.2020
Transfer characteristics : PQ
Matrix coefficients : BT.2020 non-constant
Mastering display color primaries : Display P3
Mastering display luminance : min: 0.0001 cd/m2, max: 1000 cd/m2

Audio
ID : 2
Format : AAC LC
Format/Info : Advanced Audio Codec Low Complexity
Codec ID : A_AAC-2
Duration : 2 h 22 min
Bit rate : 834 kb/s
Channel(s) : 8 channels
Channel layout : C L R Ls Rs Lb Rb LFE
Sampling rate : 48.0 kHz
Frame rate : 46.875 FPS (1024 SPF)
Compression mode : Lossy
Delay relative to video : 20 ms
Stream size : 853 MiB (9%)
Language : English
Default : Yes
Forced : No

Text #1
ID : 3
Format : VobSub
Muxing mode : zlib
Codec ID : S_VOBSUB
Codec ID/Info : Picture based subtitle format used on DVDs
Duration : 2 h 15 min
Bit rate : 10.5 kb/s
Count of elements : 2043
Stream size : 10.2 MiB (0%)
Language : English
Default : No
Forced : No

Text #2
ID : 4
Format : VobSub
Muxing mode : zlib
Codec ID : S_VOBSUB
Codec ID/Info : Picture based subtitle format used on DVDs
Duration : 3 min 46 s
Bit rate : 4 496 b/s
Count of elements : 31
Stream size : 124 KiB (0%)
Title : Force
Language : English
Default : No
Forced : Yes

Text #3
ID : 5
Format : VobSub
Muxing mode : zlib
Codec ID : S_VOBSUB
Codec ID/Info : Picture based subtitle format used on DVDs
Duration : 2 h 15 min
Bit rate : 5 171 b/s
Count of elements : 1645
Stream size : 5.01 MiB (0%)
Language : Chinese
Default : No
Forced : No

Text #4
ID : 6
Format : VobSub
Muxing mode : zlib
Codec ID : S_VOBSUB
Codec ID/Info : Picture based subtitle format used on DVDs
Duration : 2 h 15 min
Bit rate : 9 639 b/s
Count of elements : 1762
Stream size : 9.33 MiB (0%)
Language : French
Default : No
Forced : No

Text #5
ID : 7
Format : VobSub
Muxing mode : zlib
Codec ID : S_VOBSUB
Codec ID/Info : Picture based subtitle format used on DVDs
Duration : 2 h 15 min
Bit rate : 6 309 b/s
Count of elements : 1568
Stream size : 6.11 MiB (0%)
Language : Japanese
Default : No
Forced : No

Text #6
ID : 8
Format : VobSub
Muxing mode : zlib
Codec ID : S_VOBSUB
Codec ID/Info : Picture based subtitle format used on DVDs
Duration : 2 h 15 min
Bit rate : 5 069 b/s
Count of elements : 1632
Stream size : 4.91 MiB (0%)
Language : Korean
Default : No
Forced : No

Text #7
ID : 9
Format : VobSub
Muxing mode : zlib
Codec ID : S_VOBSUB
Codec ID/Info : Picture based subtitle format used on DVDs
Duration : 2 h 15 min
Bit rate : 8 049 b/s
Count of elements : 1634
Stream size : 7.79 MiB (0%)
Language : Spanish
Default : No
Forced : No

Menu
00:00:00.000 : en:Chapter 01
00:08:02.899 : en:Chapter 02
00:11:50.000 : en:Chapter 03
00:15:19.585 : en:Chapter 04
00:20:34.316 : en:Chapter 05
00:23:05.092 : en:Chapter 06
00:29:40.278 : en:Chapter 07
00:37:24.659 : en:Chapter 08
00:42:48.816 : en:Chapter 09
00:50:23.103 : en:Chapter 10
01:01:05.244 : en:Chapter 11
01:14:05.941 : en:Chapter 12
01:28:02.068 : en:Chapter 13
01:38:21.228 : en:Chapter 14
01:45:40.876 : en:Chapter 15
01:51:15.877 : en:Chapter 16
01:57:48.311 : en:Chapter 17
02:04:39.513 : en:Chapter 18
02:09:40.063 : en:Chapter 19
02:13:11.525 : en:Chapter 20

(He/Him) He's BvSRips. I dedicate myself to sharing files on this blog for free. But it is difficult to maintain the links online for a long time, they are denounced and deleted, reuploading costs more work, that is why a section for VIP users was created, where they can download all the files published 100% in MEGA, as premium, without spend more. I would greatly appreciate your collaboration so that this blog remains online for a longer time.

BUY VIP HERE

You may also like...

Leave a Reply

Your email address will not be published. Required fields are marked *