That 70s Show All Season | 720p & 1080p WEBRip x265-BvS

That 70s Show

Set in the Wisconsin suburbs of the United States, Eric Forman lives under the authority of his parents, Red and Kitty. Next door is his girlfriend/neighbor, Donna Pinciotti and her parents Bob and Midge. The rest of the gang includes Jackie, and her sometimes boyfriend, Kelso, Hyde, a conspiracy theorist and Fez, a foreign exchange student. The gang mostly likes to spend their time in Eric’s basement, pondering their lives, parents, and their futures, while getting into many funny mishaps and adventures in their teenage lives along the way.

Links: HOMEPAGE IMDB

Note: In English with English Selectable Subtitles

DOWNLOAD

VIP (GOOGLE DRIVE)

This content is reserved for registered users. Sign up here o login to be able to see it.

FREE

  • SEASON 1: 720p x265-BvS (ONLY VIP)
  • SEASON 2: 720p x265-BvS (ONLY VIP)
  • SEASON 3: 720p x265-BvS (ONLY VIP)
  • SEASON 4: 720p x265-BvS (ONLY VIP)
  • SEASON 5: 720p x265-BvS (ONLY VIP)
  • SEASON 6: 720p x265-BvS (ONLY VIP)
  • SEASON 7: 720p x265-BvS (ONLY VIP)
  • SEASON 8: 720p x265-BvS (ONLY VIP)

NFO

WEBRip.x264-ION10

 

720p.x265-BvS

General
Unique ID : 241587648725823242228604311786920984470 (0xB5C016B439A025368202A2C97851BF96)
Complete name : That.70’s.Show.S01E0.720p.BluRay.x265.mkv
Format : Matroska
Format version : Version 4
File size : 115 MiB
Duration : 22 min 31 s
Overall bit rate : 717 kb/s
Encoded date : UTC 2019-03-24 07:49:09
Writing application : mkvmerge v9.9.0 (‘Pick Up’) 64bit
Writing library : libebml v1.3.4 + libmatroska v1.4.5

Video
ID : 1
Format : HEVC
Format/Info : High Efficiency Video Coding
Format profile : [email protected]@Main
Codec ID : V_MPEGH/ISO/HEVC
Duration : 22 min 31 s
Bit rate : 650 kb/s
Width : 1 280 pixels
Height : 720 pixels
Display aspect ratio : 16:9
Original display aspect ratio : 16:9
Frame rate mode : Constant
Frame rate : 23.976 (24000/1001) FPS
Color space : YUV
Chroma subsampling : 4:2:0
Bit depth : 8 bits
Bits/(Pixel*Frame) : 0.029
Stream size : 105 MiB (91%)
Default : Yes
Forced : No
Color range : Limited
Color primaries : BT.709
Transfer characteristics : BT.709
Matrix coefficients : BT.709

Audio
ID : 2
Format : AAC LC SBR
Format/Info : Advanced Audio Codec Low Complexity with Spectral Band Replication
Commercial name : HE-AAC
Format settings : Explicit
Codec ID : A_AAC-2
Duration : 22 min 31 s
Bit rate : 64.0 kb/s
Channel(s) : 2 channels
Channel layout : L R
Sampling rate : 48.0 kHz
Frame rate : 23.438 FPS (2048 SPF)
Compression mode : Lossy
Delay relative to video : 3 ms
Stream size : 10.3 MiB (9%)
Default : Yes
Forced : No

Text
ID : 3
Format : UTF-8
Codec ID : S_TEXT/UTF8
Codec ID/Info : UTF-8 Plain Text
Duration : 22 min 28 s
Bit rate : 73 b/s
Count of elements : 487
Stream size : 12.1 KiB (0%)
Default : Yes
Forced : No

1080p.x265-BvS

 

Leave a Reply

Your email address will not be published. Required fields are marked *