Star Wars – Episode VIII – The Last Jedi (2017) 1080p BluRay x265 HEVC 10bit AAC 7.1 Tigole [G.DRIVE]

Star-Wars---Episode-VIII---The-Last-Jedi-(2017)-(1080p-BluRay-x265-HEVC-10bit-AAC-7.1-Tigole)
As a new threat to the galaxy rises, Rey, a desert scavenger, and Finn, an ex-stormtrooper, must join Han Solo and Chewbacca to search for the one hope of restoring peace.

Links: iMDB Trailer

Star Wars – Episode VIII – The Last Jedi (2017) 1080p BluRay x265 HEVC 10bit AAC 7.1 Tigole
MKV-HEVC | 1920×804 | English | Subs.ENG/FRE/SPA | AAC 7.1 | 8.74GB

This content is reserved for registered users. Sign up here o login to be able to see it.

MEGA – 1FICHIER

NFO

General
Unique ID : 131169279249489310273247248528736122543 (0x62AE48C5DAE3B5BA82E2A0A71EF1F6AF)
Complete name : D:\HDFRAEN2155\torrent\Star Wars – Episode VIII – The Last Jedi (2017) (1080p BluRay x265 HEVC 10bit AAC 7.1 Tigole)\Star Wars – Episode VIII – The Last Jedi (2017) (1080p BluRay x265 10bit Tigole).mkv
Format : Matroska
Format version : Version 4
File size : 6.98 GiB
Duration : 2 h 31 min
Overall bit rate : 6 584 kb/s
Movie name : The Last Jedi
Encoded date : UTC 2020-08-02 10:56:11
Writing application : mkvmerge v48.0.0 (‘Fortress Around Your Heart’) 64-bit
Writing library : libebml v1.4.0 + libmatroska v1.6.0

Video
ID : 1
Format : HEVC
Format/Info : High Efficiency Video Coding
Format profile : Main [email protected]@Main
Codec ID : V_MPEGH/ISO/HEVC
Duration : 2 h 31 min
Bit rate : 5 501 kb/s
Width : 1 920 pixels
Height : 804 pixels
Display aspect ratio : 2.40:1
Frame rate mode : Constant
Frame rate : 23.976 (24000/1001) FPS
Color space : YUV
Chroma subsampling : 4:2:0
Bit depth : 10 bits
Bits/(Pixel*Frame) : 0.149
Stream size : 5.83 GiB (84%)
Writing library : x265 3.2+23-52135ffd9bcd:[Windows][GCC 9.2.0][64 bit] 10bit
Encoding settings : cpuid=1111039 / frame-threads=3 / numa-pools=8 / wpp / no-pmode / no-pme / no-psnr / no-ssim / log-level=2 / input-csp=1 / input-res=1920×804 / interlace=0 / total-frames=218460 / level-idc=0 / high-tier=1 / uhd-bd=0 / ref=4 / no-allow-non-conformance / no-repeat-headers / annexb / no-aud / no-hrd / info / hash=0 / no-temporal-layers / open-gop / min-keyint=23 / keyint=250 / gop-lookahead=0 / bframes=4 / b-adapt=2 / b-pyramid / bframe-bias=0 / rc-lookahead=25 / lookahead-slices=4 / scenecut=40 / hist-scenecut=0 / radl=0 / no-splice / no-intra-refresh / ctu=64 / min-cu-size=8 / rect / no-amp / max-tu-size=32 / tu-inter-depth=1 / tu-intra-depth=1 / limit-tu=0 / rdoq-level=2 / dynamic-rd=0.00 / no-ssim-rd / signhide / no-tskip / nr-intra=0 / nr-inter=0 / no-constrained-intra / strong-intra-smoothing / max-merge=3 / limit-refs=3 / limit-modes / me=3 / subme=3 / merange=57 / temporal-mvp / no-frame-dup / no-hme / weightp / no-weightb / no-analyze-src-pics / deblock=0:0 / no-sao / no-sao-non-deblock / rd=4 / selective-sao=0 / no-early-skip / rskip / no-fast-intra / no-tskip-fast / no-cu-lossless / no-b-intra / no-splitrd-skip / rdpenalty=0 / psy-rd=2.00 / psy-rdoq=1.00 / no-rd-refine / no-lossless / cbqpoffs=0 / crqpoffs=0 / rc=abr / bitrate=5500 / qcomp=0.60 / qpstep=4 / stats-write=0 / stats-read=2 / cplxblur=20.0 / qblur=0.5 / ipratio=1.40 / pbratio=1.30 / aq-mode=3 / aq-strength=1.00 / cutree / zone-count=0 / no-strict-cbr / qg-size=32 / no-rc-grain / qpmax=69 / qpmin=0 / no-const-vbv / sar=0 / overscan=0 / videoformat=5 / range=0 / colorprim=2 / transfer=2 / colormatrix=2 / chromaloc=0 / display-window=0 / cll=0,0 / min-luma=0 / max-luma=1023 / log2-max-poc-lsb=8 / vui-timing-info / vui-hrd-info / slices=1 / no-opt-qp-pps / no-opt-ref-list-length-pps / multi-pass-opt-rps / scenecut-bias=0.05 / hist-threshold=0.01 / no-opt-cu-delta-qp / aq-motion / no-hdr / no-hdr-opt / no-dhdr10-opt / no-idr-recovery-sei / analysis-reuse-level=5 / scale-factor=0 / refine-intra=0 / refine-inter=0 / refine-mv=1 / refine-ctu-distortion=0 / no-limit-sao / ctu-info=0 / no-lowpass-dct / refine-analysis-type=0 / copy-pic=1 / max-ausize-factor=1.0 / no-dynamic-refine / no-single-sei / no-hevc-aq / no-svt / no-field / qp-adaptation-range=1.00 / no-scenecut-aware-qp
Default : Yes
Forced : No

Audio #1
ID : 2
Format : AAC LC
Format/Info : Advanced Audio Codec Low Complexity
Codec ID : A_AAC-2
Duration : 2 h 31 min
Bit rate : 557 kb/s
Channel(s) : 8 channels
Channel layout : C L R Ls Rs Lb Rb LFE
Sampling rate : 48.0 kHz
Frame rate : 46.875 FPS (1024 SPF)
Compression mode : Lossy
Delay relative to video : 20 ms
Stream size : 605 MiB (8%)
Language : English
Default : Yes
Forced : No

Audio #2
ID : 3
Format : AAC LC SBR
Format/Info : Advanced Audio Codec Low Complexity with Spectral Band Replication
Commercial name : HE-AAC
Format settings : Explicit
Codec ID : A_AAC-2
Duration : 2 h 31 min
Bit rate : 66.2 kb/s
Channel(s) : 2 channels
Channel layout : L R
Sampling rate : 48.0 kHz
Frame rate : 23.438 FPS (2048 SPF)
Compression mode : Lossy
Delay relative to video : 40 ms
Stream size : 71.6 MiB (1%)
Title : Commentary
Language : English
Default : No
Forced : No

Audio #3
ID : 4
Format : AAC LC
Format/Info : Advanced Audio Codec Low Complexity
Codec ID : A_AAC-2
Duration : 2 h 31 min
Bit rate : 397 kb/s
Channel(s) : 6 channels
Channel layout : C L R Ls Rs LFE
Sampling rate : 48.0 kHz
Frame rate : 46.875 FPS (1024 SPF)
Compression mode : Lossy
Delay relative to video : 20 ms
Stream size : 431 MiB (6%)
Title : Isolated Score
Language : English
Default : No
Forced : No

Text #1
ID : 5
Format : VobSub
Muxing mode : zlib
Codec ID : S_VOBSUB
Codec ID/Info : Picture based subtitle format used on DVDs
Duration : 2 h 23 min
Bit rate : 8 444 b/s
Count of elements : 1889
Stream size : 8.66 MiB (0%)
Language : English
Default : No
Forced : No

Text #2
ID : 6
Format : VobSub
Muxing mode : zlib
Codec ID : S_VOBSUB
Codec ID/Info : Picture based subtitle format used on DVDs
Duration : 2 h 24 min
Bit rate : 18.7 kb/s
Count of elements : 2399
Stream size : 19.3 MiB (0%)
Title : Commentary
Language : English
Default : No
Forced : No

Text #3
ID : 7
Format : VobSub
Muxing mode : zlib
Codec ID : S_VOBSUB
Codec ID/Info : Picture based subtitle format used on DVDs
Duration : 2 h 22 min
Bit rate : 3 516 b/s
Count of elements : 1592
Stream size : 3.59 MiB (0%)
Language : Arabic
Default : No
Forced : No

Text #4
ID : 8
Format : VobSub
Muxing mode : zlib
Codec ID : S_VOBSUB
Codec ID/Info : Picture based subtitle format used on DVDs
Duration : 2 h 31 min
Bit rate : 5 907 b/s
Count of elements : 1175
Stream size : 6.40 MiB (0%)
Language : Danish
Default : No
Forced : No

Text #5
ID : 9
Format : VobSub
Muxing mode : zlib
Codec ID : S_VOBSUB
Codec ID/Info : Picture based subtitle format used on DVDs
Duration : 2 h 31 min
Bit rate : 5 985 b/s
Count of elements : 1238
Stream size : 6.48 MiB (0%)
Language : Dutch
Default : No
Forced : No

Text #6
ID : 10
Format : VobSub
Muxing mode : zlib
Codec ID : S_VOBSUB
Codec ID/Info : Picture based subtitle format used on DVDs
Duration : 2 h 24 min
Bit rate : 13.4 kb/s
Count of elements : 1759
Stream size : 13.8 MiB (0%)
Title : Commentary
Language : Dutch
Default : No
Forced : No

Text #7
ID : 11
Format : VobSub
Muxing mode : zlib
Codec ID : S_VOBSUB
Codec ID/Info : Picture based subtitle format used on DVDs
Duration : 2 h 22 min
Bit rate : 6 198 b/s
Count of elements : 1550
Stream size : 6.33 MiB (0%)
Language : French
Default : No
Forced : No

Text #8
ID : 12
Format : VobSub
Muxing mode : zlib
Codec ID : S_VOBSUB
Codec ID/Info : Picture based subtitle format used on DVDs
Duration : 2 h 24 min
Bit rate : 16.1 kb/s
Count of elements : 2369
Stream size : 16.6 MiB (0%)
Title : Commentary
Language : French
Default : No
Forced : No

Text #9
ID : 13
Format : VobSub
Muxing mode : zlib
Codec ID : S_VOBSUB
Codec ID/Info : Picture based subtitle format used on DVDs
Duration : 2 h 31 min
Bit rate : 6 731 b/s
Count of elements : 1662
Stream size : 7.30 MiB (0%)
Language : Finnish
Default : No
Forced : No

Text #10
ID : 14
Format : VobSub
Muxing mode : zlib
Codec ID : S_VOBSUB
Codec ID/Info : Picture based subtitle format used on DVDs
Duration : 2 h 31 min
Bit rate : 6 116 b/s
Count of elements : 1593
Stream size : 6.63 MiB (0%)
Language : Norwegian Bokmal
Default : No
Forced : No

Text #11
ID : 15
Format : VobSub
Muxing mode : zlib
Codec ID : S_VOBSUB
Codec ID/Info : Picture based subtitle format used on DVDs
Duration : 2 h 31 min
Bit rate : 6 149 b/s
Count of elements : 1247
Stream size : 6.66 MiB (0%)
Language : Swedish
Default : No
Forced : No

Menu
00:00:00.000 : en:Chapter 01
00:00:18.643 : en:Chapter 02
00:01:45.730 : en:Chapter 03
00:03:11.816 : en:Chapter 04
00:07:43.296 : en:Chapter 05
00:12:48.434 : en:Chapter 06
00:13:44.573 : en:Chapter 07
00:16:29.279 : en:Chapter 08
00:19:59.281 : en:Chapter 09
00:22:51.370 : en:Chapter 10
00:26:04.980 : en:Chapter 11
00:27:22.515 : en:Chapter 12
00:31:24.757 : en:Chapter 13
00:32:54.681 : en:Chapter 14
00:35:27.667 : en:Chapter 15
00:38:11.497 : en:Chapter 16
00:41:53.427 : en:Chapter 17
00:44:29.541 : en:Chapter 18
00:46:51.475 : en:Chapter 19
00:51:41.932 : en:Chapter 20
00:53:50.060 : en:Chapter 21
00:55:41.504 : en:Chapter 22
00:57:39.581 : en:Chapter 23
00:59:16.636 : en:Chapter 24
01:02:05.847 : en:Chapter 25
01:03:07.700 : en:Chapter 26
01:05:41.729 : en:Chapter 27
01:07:03.477 : en:Chapter 28
01:10:25.721 : en:Chapter 29
01:13:30.322 : en:Chapter 30
01:17:43.450 : en:Chapter 31
01:20:53.056 : en:Chapter 32
01:24:17.969 : en:Chapter 33
01:26:23.219 : en:Chapter 34
01:27:59.524 : en:Chapter 35
01:30:49.360 : en:Chapter 36
01:32:54.569 : en:Chapter 37
01:35:53.706 : en:Chapter 38
01:37:10.616 : en:Chapter 39
01:39:12.863 : en:Chapter 40
01:42:07.663 : en:Chapter 41
01:45:03.714 : en:Chapter 42
01:49:35.694 : en:Chapter 43
01:52:20.608 : en:Chapter 44
01:56:04.749 : en:Chapter 45
01:58:52.083 : en:Chapter 46
02:03:11.133 : en:Chapter 47
02:06:39.758 : en:Chapter 48
02:11:43.604 : en:Chapter 49
02:15:12.104 : en:Chapter 50
02:20:16.699 : en:Chapter 51
02:23:39.694 : en:Chapter 52

We choose a different approach. Will you support it? I am BvSRips, I make my own rips of movies and series in 1080p x265 in reduced size for those users who do not have a high speed internet. We believe that everyone should be able to enjoy TV or movie entertainment, but what if it can't be seen in my country? What if you don't have subtitles? Do I have to pay $ 10 or $ 15 on each streaming platform? That is why this website was born by sharing files on free servers (mega and 1fichier). We do not place advertising or popups because they are intrusive for the user, we want you to enjoy this website. But also the website and the tools used consume an expense that we assume and that now you can support us.You can become a VIP member and download without limit, read more here. I hope I can count on your help.

You may also like...

Leave a Reply

Your email address will not be published. Required fields are marked *