Star Wars – Episode VII – The Force Awakens (2015) 1080p BluRay x265 HEVC 10bit AAC 7.1 Tigole [MEGA]

Star-Wars---Episode-VII---The-Force-Awakens-(2015)-(1080p-BluRay-x265-HEVC-10bit-AAC-7.1-Tigole)
As a new threat to the galaxy rises, Rey, a desert scavenger, and Finn, an ex-stormtrooper, must join Han Solo and Chewbacca to search for the one hope of restoring peace.

Links: iMDB Trailer

Star Wars – Episode VII – The Force Awakens (2015) 1080p BluRay x265 HEVC 10bit AAC 7.1 Tigole
MKV-HEVC | 1920×804 | English | Subs.ENG/GER | AAC 7.1 | 6.48GB

This content is reserved for registered users. Sign up here o login to be able to see it. Buy your VIP membership

MEGA – 1FICHIER

NFO

General
Unique ID : 336121941805064669450891065147938365713 (0xFCDEBB346E8A8390A233C69FFC80E111)
Complete name : Star Wars – Episode VII – The Force Awakens (2015) (1080p BluRay x265 10bit Tigole).mkv
Format : Matroska
Format version : Version 4
File size : 6.48 GiB
Duration : 2 h 18 min
Overall bit rate : 6 715 kb/s
Movie name : The Force Awakens
Encoded date : UTC 2020-07-27 00:25:30
Writing application : mkvmerge v38.0.0 (‘The Silent Type’) 64-bit
Writing library : libebml v1.3.9 + libmatroska v1.5.2

Video
ID : 1
Format : HEVC
Format/Info : High Efficiency Video Coding
Format profile : Main [email protected]@Main
Codec ID : V_MPEGH/ISO/HEVC
Duration : 2 h 18 min
Bit rate : 5 999 kb/s
Width : 1 920 pixels
Height : 800 pixels
Display aspect ratio : 2.40:1
Frame rate mode : Constant
Frame rate : 23.976 (24000/1001) FPS
Color space : YUV
Chroma subsampling : 4:2:0
Bit depth : 10 bits
Bits/(Pixel*Frame) : 0.163
Stream size : 5.79 GiB (89%)
Writing library : x265 3.2+23-52135ffd9bcd:[Windows][GCC 9.2.0][64 bit] 10bit
Encoding settings : cpuid=1111039 / frame-threads=3 / numa-pools=8 / wpp / no-pmode / no-pme / no-psnr / no-ssim / log-level=2 / input-csp=1 / input-res=1920×800 / interlace=0 / total-frames=198682 / level-idc=0 / high-tier=1 / uhd-bd=0 / ref=4 / no-allow-non-conformance / no-repeat-headers / annexb / no-aud / no-hrd / info / hash=0 / no-temporal-layers / open-gop / min-keyint=23 / keyint=250 / gop-lookahead=0 / bframes=4 / b-adapt=2 / b-pyramid / bframe-bias=0 / rc-lookahead=25 / lookahead-slices=4 / scenecut=40 / hist-scenecut=0 / radl=0 / no-splice / no-intra-refresh / ctu=64 / min-cu-size=8 / rect / no-amp / max-tu-size=32 / tu-inter-depth=1 / tu-intra-depth=1 / limit-tu=0 / rdoq-level=2 / dynamic-rd=0.00 / no-ssim-rd / signhide / no-tskip / nr-intra=0 / nr-inter=0 / no-constrained-intra / strong-intra-smoothing / max-merge=3 / limit-refs=3 / limit-modes / me=3 / subme=3 / merange=57 / temporal-mvp / no-frame-dup / no-hme / weightp / no-weightb / no-analyze-src-pics / deblock=0:0 / no-sao / no-sao-non-deblock / rd=4 / selective-sao=0 / no-early-skip / rskip / no-fast-intra / no-tskip-fast / no-cu-lossless / no-b-intra / no-splitrd-skip / rdpenalty=0 / psy-rd=2.00 / psy-rdoq=1.00 / no-rd-refine / no-lossless / cbqpoffs=0 / crqpoffs=0 / rc=abr / bitrate=6000 / qcomp=0.60 / qpstep=4 / stats-write=0 / stats-read=2 / cplxblur=20.0 / qblur=0.5 / ipratio=1.40 / pbratio=1.30 / aq-mode=3 / aq-strength=1.00 / cutree / zone-count=0 / no-strict-cbr / qg-size=32 / no-rc-grain / qpmax=69 / qpmin=0 / no-const-vbv / sar=0 / overscan=0 / videoformat=5 / range=0 / colorprim=2 / transfer=2 / colormatrix=2 / chromaloc=0 / display-window=0 / cll=0,0 / min-luma=0 / max-luma=1023 / log2-max-poc-lsb=8 / vui-timing-info / vui-hrd-info / slices=1 / no-opt-qp-pps / no-opt-ref-list-length-pps / multi-pass-opt-rps / scenecut-bias=0.05 / hist-threshold=0.01 / no-opt-cu-delta-qp / aq-motion / no-hdr / no-hdr-opt / no-dhdr10-opt / no-idr-recovery-sei / analysis-reuse-level=5 / scale-factor=0 / refine-intra=0 / refine-inter=0 / refine-mv=1 / refine-ctu-distortion=0 / no-limit-sao / ctu-info=0 / no-lowpass-dct / refine-analysis-type=0 / copy-pic=1 / max-ausize-factor=1.0 / no-dynamic-refine / no-single-sei / no-hevc-aq / no-svt / no-field / qp-adaptation-range=1.00 / no-scenecut-aware-qp
Default : Yes
Forced : No

Audio #1
ID : 2
Format : AAC LC
Format/Info : Advanced Audio Codec Low Complexity
Codec ID : A_AAC-2
Duration : 2 h 18 min
Bit rate : 602 kb/s
Channel(s) : 8 channels
Channel layout : C L R Ls Rs Lb Rb LFE
Sampling rate : 48.0 kHz
Frame rate : 46.875 FPS (1024 SPF)
Compression mode : Lossy
Delay relative to video : 20 ms
Stream size : 595 MiB (9%)
Language : English
Default : Yes
Forced : No

Audio #2
ID : 3
Format : AAC LC SBR
Format/Info : Advanced Audio Codec Low Complexity with Spectral Band Replication
Commercial name : HE-AAC
Format settings : Explicit
Codec ID : A_AAC-2
Duration : 2 h 18 min
Bit rate : 66.2 kb/s
Channel(s) : 2 channels
Channel layout : L R
Sampling rate : 48.0 kHz
Frame rate : 23.438 FPS (2048 SPF)
Compression mode : Lossy
Delay relative to video : 40 ms
Stream size : 65.2 MiB (1%)
Title : Commentary
Language : English
Default : No
Forced : No

Text #1
ID : 4
Format : VobSub
Muxing mode : zlib
Codec ID : S_VOBSUB
Codec ID/Info : Picture based subtitle format used on DVDs
Duration : 2 h 6 min
Bit rate : 9 466 b/s
Count of elements : 1778
Stream size : 8.59 MiB (0%)
Language : English
Default : No
Forced : No

Text #2
ID : 5
Format : VobSub
Muxing mode : zlib
Codec ID : S_VOBSUB
Codec ID/Info : Picture based subtitle format used on DVDs
Duration : 2 h 9 min
Bit rate : 17.9 kb/s
Count of elements : 2220
Stream size : 16.6 MiB (0%)
Title : Commentary
Language : English
Default : No
Forced : No

Text #3
ID : 6
Format : VobSub
Muxing mode : zlib
Codec ID : S_VOBSUB
Codec ID/Info : Picture based subtitle format used on DVDs
Duration : 2 h 8 min
Bit rate : 6 702 b/s
Count of elements : 1346
Stream size : 6.16 MiB (0%)
Language : French
Default : No
Forced : No

Text #4
ID : 7
Format : VobSub
Muxing mode : zlib
Codec ID : S_VOBSUB
Codec ID/Info : Picture based subtitle format used on DVDs
Duration : 2 h 9 min
Bit rate : 15.7 kb/s
Count of elements : 2208
Stream size : 14.5 MiB (0%)
Title : Commentary
Language : French
Default : No
Forced : No

Text #5
ID : 8
Format : VobSub
Muxing mode : zlib
Codec ID : S_VOBSUB
Codec ID/Info : Picture based subtitle format used on DVDs
Duration : 2 h 3 min
Bit rate : 6 852 b/s
Count of elements : 1324
Stream size : 6.04 MiB (0%)
Language : Spanish
Default : No
Forced : No

Text #6
ID : 9
Format : VobSub
Muxing mode : zlib
Codec ID : S_VOBSUB
Codec ID/Info : Picture based subtitle format used on DVDs
Duration : 2 h 9 min
Bit rate : 16.3 kb/s
Count of elements : 2208
Stream size : 15.1 MiB (0%)
Title : Commentary
Language : Spanish
Default : No
Forced : No

Menu
00:00:00.000 : en:Chapter 01
00:00:09.259 : en:Chapter 02
00:01:43.061 : en:Chapter 03
00:03:51.856 : en:Chapter 04
00:06:12.288 : en:Chapter 05
00:09:33.948 : en:Chapter 06
00:10:43.559 : en:Chapter 07
00:12:35.713 : en:Chapter 08
00:13:39.693 : en:Chapter 09
00:14:48.220 : en:Chapter 10
00:16:45.921 : en:Chapter 11
00:18:04.583 : en:Chapter 12
00:19:21.535 : en:Chapter 13
00:21:26.618 : en:Chapter 14
00:24:03.650 : en:Chapter 15
00:26:47.022 : en:Chapter 16
00:29:54.667 : en:Chapter 17
00:31:49.324 : en:Chapter 18
00:35:51.774 : en:Chapter 19
00:36:40.615 : en:Chapter 20
00:37:45.513 : en:Chapter 21
00:40:19.250 : en:Chapter 22
00:43:39.199 : en:Chapter 23
00:45:29.560 : en:Chapter 24
00:49:22.918 : en:Chapter 25
00:51:19.951 : en:Chapter 26
00:54:13.750 : en:Chapter 27
00:59:48.793 : en:Chapter 28
01:04:16.060 : en:Chapter 29
01:08:37.238 : en:Chapter 30
01:11:07.221 : en:Chapter 31
01:15:16.386 : en:Chapter 32
01:16:49.896 : en:Chapter 33
01:19:37.522 : en:Chapter 34
01:20:56.893 : en:Chapter 35
01:25:36.172 : en:Chapter 36
01:32:12.568 : en:Chapter 37
01:35:29.014 : en:Chapter 38
01:36:34.955 : en:Chapter 39
01:39:28.629 : en:Chapter 40
01:41:29.958 : en:Chapter 41
01:42:57.504 : en:Chapter 42
01:45:00.002 : en:Chapter 43
01:50:33.710 : en:Chapter 44
01:53:39.771 : en:Chapter 45
01:55:22.165 : en:Chapter 46
01:58:05.453 : en:Chapter 47
02:01:05.591 : en:Chapter 48
02:02:32.678 : en:Chapter 49
02:07:07.578 : en:Chapter 50

(He/Him) He's BvSRips. I dedicate myself to sharing files on this blog for free. But it is difficult to maintain the links online for a long time, they are denounced and deleted, reuploading costs more work, that is why a section for VIP users was created, where they can download all the files published 100% in MEGA, as premium, without spend more. I would greatly appreciate your collaboration so that this blog remains online for a longer time.

BUY VIP HERE

You may also like...

Leave a Reply

Your email address will not be published. Required fields are marked *