Star Wars – Episode IV – A New Hope (1977) RM4K 1080p BluRay x265 HEVC 10bit AAC 7.1 Tigole [MEGA]

Star-Wars---Episode-IV---A-New-Hope-(1977)-RM4K-(1080p-BluRay-x265-HEVC-10bit-AAC-7.1-Tigole)
Luke Skywalker joins forces with a Jedi Knight, a cocky pilot, a Wookiee and two droids to save the galaxy from the Empire’s world-destroying battle station, while also attempting to rescue Princess Leia from the mysterious Darth Vader.

Links: iMDB Trailer

Star Wars – Episode IV – A New Hope (1977) RM4K 1080p BluRay x265 HEVC 10bit AAC 7.1 Tigole
MKV-HEVC | 1920×804 | English | Subs.ENG/GER | AAC 7.1 | 6.84GB

This content is reserved for registered users. Sign up here o login to be able to see it.

MEGA – 1FICHIER

NFO

General
Unique ID : 58952413386449588996897741673650739718 (0x2C59D2630622ADFCACDE9314BF945A06)
Complete name : Star Wars – Episode IV – A New Hope (1977) RM4K (1080p BluRay x265 10bit Tigole).mkv
Format : Matroska
Format version : Version 4
File size : 6.48 GiB
Duration : 2 h 4 min
Overall bit rate : 7 440 kb/s
Movie name : Star Wars: A New Hope
Encoded date : UTC 2020-07-22 21:05:46
Writing application : mkvmerge v38.0.0 (‘The Silent Type’) 64-bit
Writing library : libebml v1.3.9 + libmatroska v1.5.2

Video
ID : 1
Format : HEVC
Format/Info : High Efficiency Video Coding
Format profile : Main [email protected]@Main
Codec ID : V_MPEGH/ISO/HEVC
Duration : 2 h 4 min
Bit rate : 6 772 kb/s
Width : 1 920 pixels
Height : 804 pixels
Display aspect ratio : 2.40:1
Frame rate mode : Constant
Frame rate : 23.976 (24000/1001) FPS
Color space : YUV
Chroma subsampling : 4:2:0
Bit depth : 10 bits
Bits/(Pixel*Frame) : 0.183
Stream size : 5.90 GiB (91%)
Writing library : x265 3.2+23-52135ffd9bcd:[Windows][GCC 9.2.0][64 bit] 10bit
Encoding settings : cpuid=1111039 / frame-threads=3 / numa-pools=8 / wpp / no-pmode / no-pme / no-psnr / no-ssim / log-level=2 / input-csp=1 / input-res=1920×804 / interlace=0 / total-frames=179450 / level-idc=0 / high-tier=1 / uhd-bd=0 / ref=4 / no-allow-non-conformance / no-repeat-headers / annexb / no-aud / no-hrd / info / hash=0 / no-temporal-layers / open-gop / min-keyint=23 / keyint=250 / gop-lookahead=0 / bframes=8 / b-adapt=2 / b-pyramid / bframe-bias=0 / rc-lookahead=25 / lookahead-slices=4 / scenecut=40 / hist-scenecut=0 / radl=0 / no-splice / no-intra-refresh / ctu=64 / min-cu-size=8 / rect / no-amp / max-tu-size=32 / tu-inter-depth=1 / tu-intra-depth=1 / limit-tu=0 / rdoq-level=2 / dynamic-rd=0.00 / no-ssim-rd / signhide / no-tskip / nr-intra=0 / nr-inter=0 / no-constrained-intra / strong-intra-smoothing / max-merge=3 / limit-refs=3 / limit-modes / me=3 / subme=3 / merange=57 / temporal-mvp / no-frame-dup / no-hme / weightp / no-weightb / no-analyze-src-pics / deblock=0:0 / no-sao / no-sao-non-deblock / rd=4 / selective-sao=0 / no-early-skip / rskip / no-fast-intra / no-tskip-fast / no-cu-lossless / no-b-intra / no-splitrd-skip / rdpenalty=0 / psy-rd=2.00 / psy-rdoq=1.00 / no-rd-refine / no-lossless / cbqpoffs=0 / crqpoffs=0 / rc=crf / crf=18.0 / qcomp=0.60 / qpstep=4 / stats-write=0 / stats-read=0 / ipratio=1.40 / pbratio=1.30 / aq-mode=3 / aq-strength=1.00 / cutree / zone-count=0 / no-strict-cbr / qg-size=32 / no-rc-grain / qpmax=69 / qpmin=0 / no-const-vbv / sar=0 / overscan=0 / videoformat=5 / range=0 / colorprim=2 / transfer=2 / colormatrix=2 / chromaloc=0 / display-window=0 / cll=0,0 / min-luma=0 / max-luma=1023 / log2-max-poc-lsb=8 / vui-timing-info / vui-hrd-info / slices=1 / no-opt-qp-pps / no-opt-ref-list-length-pps / no-multi-pass-opt-rps / scenecut-bias=0.05 / hist-threshold=0.01 / no-opt-cu-delta-qp / aq-motion / no-hdr / no-hdr-opt / no-dhdr10-opt / no-idr-recovery-sei / analysis-reuse-level=5 / scale-factor=0 / refine-intra=0 / refine-inter=0 / refine-mv=1 / refine-ctu-distortion=0 / no-limit-sao / ctu-info=0 / no-lowpass-dct / refine-analysis-type=0 / copy-pic=1 / max-ausize-factor=1.0 / no-dynamic-refine / no-single-sei / no-hevc-aq / no-svt / no-field / qp-adaptation-range=1.00 / no-scenecut-aware-qp
Default : Yes
Forced : No

Audio #1
ID : 2
Format : AAC LC
Format/Info : Advanced Audio Codec Low Complexity
Codec ID : A_AAC-2
Duration : 2 h 4 min
Bit rate : 425 kb/s
Channel(s) : 8 channels
Channel layout : C L R Ls Rs Lb Rb LFE
Sampling rate : 48.0 kHz
Frame rate : 46.875 FPS (1024 SPF)
Compression mode : Lossy
Delay relative to video : 20 ms
Stream size : 380 MiB (6%)
Language : English
Default : Yes
Forced : No

Audio #2
ID : 3
Format : AAC LC SBR
Format/Info : Advanced Audio Codec Low Complexity with Spectral Band Replication
Commercial name : HE-AAC
Format settings : Explicit
Codec ID : A_AAC-2
Duration : 2 h 4 min
Bit rate : 66.2 kb/s
Channel(s) : 2 channels
Channel layout : L R
Sampling rate : 48.0 kHz
Frame rate : 23.438 FPS (2048 SPF)
Compression mode : Lossy
Delay relative to video : 40 ms
Stream size : 58.8 MiB (1%)
Title : Commentary 1
Language : English
Default : No
Forced : No

Audio #3
ID : 4
Format : AAC LC SBR
Format/Info : Advanced Audio Codec Low Complexity with Spectral Band Replication
Commercial name : HE-AAC
Format settings : Explicit
Codec ID : A_AAC-2
Duration : 2 h 4 min
Bit rate : 66.2 kb/s
Channel(s) : 2 channels
Channel layout : L R
Sampling rate : 48.0 kHz
Frame rate : 23.438 FPS (2048 SPF)
Compression mode : Lossy
Delay relative to video : 40 ms
Stream size : 58.8 MiB (1%)
Title : Commentary 2
Language : English
Default : No
Forced : No

Text #1
ID : 5
Format : VobSub
Muxing mode : zlib
Codec ID : S_VOBSUB
Codec ID/Info : Picture based subtitle format used on DVDs
Duration : 1 h 59 min
Bit rate : 11.1 kb/s
Count of elements : 1503
Stream size : 9.49 MiB (0%)
Language : English
Default : No
Forced : No

Text #2
ID : 6
Format : VobSub
Muxing mode : zlib
Codec ID : S_VOBSUB
Codec ID/Info : Picture based subtitle format used on DVDs
Duration : 2 h 2 min
Bit rate : 18.5 kb/s
Count of elements : 1903
Stream size : 16.3 MiB (0%)
Title : Commentary 1
Language : English
Default : No
Forced : No

Text #3
ID : 7
Format : VobSub
Muxing mode : zlib
Codec ID : S_VOBSUB
Codec ID/Info : Picture based subtitle format used on DVDs
Duration : 2 h 4 min
Bit rate : 18.7 kb/s
Count of elements : 2048
Stream size : 16.6 MiB (0%)
Title : Commentary 2
Language : English
Default : No
Forced : No

Text #4
ID : 8
Format : VobSub
Muxing mode : zlib
Codec ID : S_VOBSUB
Codec ID/Info : Picture based subtitle format used on DVDs
Duration : 1 h 58 min
Bit rate : 7 573 b/s
Count of elements : 1027
Stream size : 6.39 MiB (0%)
Language : Danish
Default : No
Forced : No

Text #5
ID : 9
Format : VobSub
Muxing mode : zlib
Codec ID : S_VOBSUB
Codec ID/Info : Picture based subtitle format used on DVDs
Duration : 1 h 58 min
Bit rate : 7 453 b/s
Count of elements : 1039
Stream size : 6.29 MiB (0%)
Language : Finnish
Default : No
Forced : No

Text #6
ID : 10
Format : VobSub
Muxing mode : zlib
Codec ID : S_VOBSUB
Codec ID/Info : Picture based subtitle format used on DVDs
Duration : 1 h 58 min
Bit rate : 12.0 kb/s
Count of elements : 1377
Stream size : 10.2 MiB (0%)
Language : German
Default : No
Forced : No

Text #7
ID : 11
Format : VobSub
Muxing mode : zlib
Codec ID : S_VOBSUB
Codec ID/Info : Picture based subtitle format used on DVDs
Duration : 4 min 8 s
Bit rate : 7 118 b/s
Count of elements : 30
Stream size : 216 KiB (0%)
Title : Forced
Language : German
Default : No
Forced : No

Text #8
ID : 12
Format : VobSub
Muxing mode : zlib
Codec ID : S_VOBSUB
Codec ID/Info : Picture based subtitle format used on DVDs
Duration : 2 h 2 min
Bit rate : 17.9 kb/s
Count of elements : 1860
Stream size : 15.8 MiB (0%)
Title : Commentary 1
Language : German
Default : No
Forced : No

Text #9
ID : 13
Format : VobSub
Muxing mode : zlib
Codec ID : S_VOBSUB
Codec ID/Info : Picture based subtitle format used on DVDs
Duration : 2 h 4 min
Bit rate : 18.3 kb/s
Count of elements : 1972
Stream size : 16.3 MiB (0%)
Title : Commentary 2
Language : German
Default : No
Forced : No

Text #10
ID : 14
Format : VobSub
Muxing mode : zlib
Codec ID : S_VOBSUB
Codec ID/Info : Picture based subtitle format used on DVDs
Duration : 1 h 58 min
Bit rate : 10.1 kb/s
Count of elements : 1311
Stream size : 8.57 MiB (0%)
Language : Italian
Default : No
Forced : No

Text #11
ID : 15
Format : VobSub
Muxing mode : zlib
Codec ID : S_VOBSUB
Codec ID/Info : Picture based subtitle format used on DVDs
Duration : 2 h 2 min
Bit rate : 15.9 kb/s
Count of elements : 1910
Stream size : 14.0 MiB (0%)
Title : Commentary 1
Language : Italian
Default : No
Forced : No

Text #12
ID : 16
Format : VobSub
Muxing mode : zlib
Codec ID : S_VOBSUB
Codec ID/Info : Picture based subtitle format used on DVDs
Duration : 2 h 4 min
Bit rate : 17.5 kb/s
Count of elements : 2015
Stream size : 15.6 MiB (0%)
Title : Commentary 2
Language : Italian
Default : No
Forced : No

Text #13
ID : 17
Format : VobSub
Muxing mode : zlib
Codec ID : S_VOBSUB
Codec ID/Info : Picture based subtitle format used on DVDs
Duration : 1 h 58 min
Bit rate : 6 645 b/s
Count of elements : 1027
Stream size : 5.61 MiB (0%)
Language : Norwegian Bokmal
Default : No
Forced : No

Text #14
ID : 18
Format : VobSub
Muxing mode : zlib
Codec ID : S_VOBSUB
Codec ID/Info : Picture based subtitle format used on DVDs
Duration : 1 h 58 min
Bit rate : 7 226 b/s
Count of elements : 1031
Stream size : 6.10 MiB (0%)
Language : Swedish
Default : No
Forced : No

Menu
00:00:00.000 : en:Chapter 01
00:00:22.063 : en:Chapter 02
00:01:54.447 : en:Chapter 03
00:04:53.459 : en:Chapter 04
00:07:28.948 : en:Chapter 05
00:08:55.535 : en:Chapter 06
00:11:22.056 : en:Chapter 07
00:15:40.898 : en:Chapter 08
00:19:40.846 : en:Chapter 09
00:23:33.870 : en:Chapter 10
00:25:33.281 : en:Chapter 11
00:27:46.164 : en:Chapter 12
00:29:13.376 : en:Chapter 13
00:32:34.744 : en:Chapter 14
00:34:53.674 : en:Chapter 15
00:36:54.879 : en:Chapter 16
00:39:06.302 : en:Chapter 17
00:41:42.958 : en:Chapter 18
00:42:32.174 : en:Chapter 19
00:44:52.398 : en:Chapter 20
00:47:53.287 : en:Chapter 21
00:49:58.662 : en:Chapter 22
00:51:14.571 : en:Chapter 23
00:52:41.700 : en:Chapter 24
00:54:13.250 : en:Chapter 25
00:57:00.834 : en:Chapter 26
00:59:13.758 : en:Chapter 27
01:03:11.746 : en:Chapter 28
01:06:17.390 : en:Chapter 29
01:08:22.890 : en:Chapter 30
01:12:33.265 : en:Chapter 31
01:14:13.574 : en:Chapter 32
01:17:14.630 : en:Chapter 33
01:19:10.245 : en:Chapter 34
01:21:30.302 : en:Chapter 35
01:25:01.137 : en:Chapter 36
01:27:03.009 : en:Chapter 37
01:29:57.100 : en:Chapter 38
01:33:49.165 : en:Chapter 39
01:36:40.795 : en:Chapter 40
01:38:07.673 : en:Chapter 41
01:39:38.430 : en:Chapter 42
01:41:25.954 : en:Chapter 43
01:42:38.318 : en:Chapter 44
01:45:03.547 : en:Chapter 45
01:49:43.702 : en:Chapter 46
01:55:19.829 : en:Chapter 47
01:57:48.394 : en:Chapter 48
01:58:29.435 : en:Chapter 49
02:00:15.416 : en:Chapter 50

We choose a different approach. Will you support it? I am BvSRips, I make my own rips of movies and series in 1080p x265 in reduced size for those users who do not have a high speed internet. We believe that everyone should be able to enjoy TV or movie entertainment, but what if it can't be seen in my country? What if you don't have subtitles? Do I have to pay $ 10 or $ 15 on each streaming platform? That is why this website was born by sharing files on free servers (mega and 1fichier). We do not place advertising or popups because they are intrusive for the user, we want you to enjoy this website. But also the website and the tools used consume an expense that we assume and that now you can support us.You can become a VIP member and download without limit, read more here. I hope I can count on your help.

You may also like...

Leave a Reply

Your email address will not be published. Required fields are marked *