Sicario – Day of the Soldado (2018) 2160p BluRay x265 HEVC 10bit HDR AAC 7.1 Tigole [G.DRIVE]

Sicario---Day-of-the-Soldado-(2018)-(2160p-BluRay-x265-HEVC-10bit-HDR-AAC-7.1-Tigole)

The drug war on the U.S.-Mexico border has escalated as the cartels have begun trafficking terrorists across the US border. To fight the war, federal agent Matt Graver re-teams with the mercurial Alejandro.

Links: iMDB Trailer

Sicario – Day of the Soldado (2018) 2160p BluRay x265 HEVC 10bit HDR AAC 7.1 Tigole
MKV-HEVC | 3840×1600 | ENGLISH | Subs.ENG/FRE/SPA | AAC 7.1 | 12.40GB

This content is reserved for registered users. Sign up here o login to be able to see it.

MEGA – 1FICHIER

NFO

General
Unique ID : 116286707873478868930739600576597424698 (0x577C015A363F3CAEF9C94C1BC18B7A3A)
Complete name : Sicario – Day of the Soldado (2018) (2160p BluRay x265 10bit HDR Tigole).mkv
Format : Matroska
Format version : Version 4
File size : 12.4 GiB
Duration : 2 h 2 min
Overall bit rate : 14.5 Mb/s
Movie name : Sicario: Day of the Soldado
Encoded date : UTC 2018-12-28 14:02:40
Writing application : mkvmerge v26.0.0 (‘In The Game’) 64-bit
Writing library : libebml v1.3.6 + libmatroska v1.4.9

Video
ID : 1
Format : HEVC
Format/Info : High Efficiency Video Coding
Format profile : Main [email protected]@Main
HDR format : SMPTE ST 2086, HDR10 compatible
Codec ID : V_MPEGH/ISO/HEVC
Duration : 2 h 2 min
Bit rate : 13.7 Mb/s
Width : 3 840 pixels
Height : 1 600 pixels
Display aspect ratio : 2.40:1
Frame rate mode : Constant
Frame rate : 23.976 (24000/1001) FPS
Color space : YUV
Chroma subsampling : 4:2:0
Bit depth : 10 bits
Bits/(Pixel*Frame) : 0.093
Stream size : 11.7 GiB (94%)
Writing library : x265 2.9+1-169e76b6bbcc:[Windows][GCC 8.2.0][64 bit] 10bit
Encoding settings : cpuid=1111039 / frame-threads=3 / numa-pools=8 / wpp / no-pmode / no-pme / no-psnr / no-ssim / log-level=2 / input-csp=1 / input-res=3840×1600 / interlace=0 / total-frames=176088 / level-idc=0 / high-tier=1 / uhd-bd=0 / ref=4 / no-allow-non-conformance / repeat-headers / annexb / no-aud / no-hrd / info / hash=0 / no-temporal-layers / open-gop / min-keyint=23 / keyint=250 / gop-lookahead=0 / bframes=8 / b-adapt=2 / b-pyramid / bframe-bias=0 / rc-lookahead=25 / lookahead-slices=4 / scenecut=40 / radl=0 / no-intra-refresh / ctu=64 / min-cu-size=8 / rect / no-amp / max-tu-size=32 / tu-inter-depth=1 / tu-intra-depth=1 / limit-tu=0 / rdoq-level=2 / dynamic-rd=0.00 / no-ssim-rd / signhide / no-tskip / nr-intra=0 / nr-inter=0 / no-constrained-intra / strong-intra-smoothing / max-merge=3 / limit-refs=3 / limit-modes / me=3 / subme=3 / merange=57 / temporal-mvp / weightp / no-weightb / no-analyze-src-pics / deblock=0:0 / sao / no-sao-non-deblock / rd=4 / no-early-skip / rskip / no-fast-intra / no-tskip-fast / no-cu-lossless / no-b-intra / no-splitrd-skip / rdpenalty=0 / psy-rd=2.00 / psy-rdoq=1.00 / no-rd-refine / no-lossless / cbqpoffs=0 / crqpoffs=0 / rc=crf / crf=18.0 / qcomp=0.60 / qpstep=4 / stats-write=0 / stats-read=0 / ipratio=1.40 / pbratio=1.30 / aq-mode=3 / aq-strength=1.00 / cutree / zone-count=0 / no-strict-cbr / qg-size=32 / no-rc-grain / qpmax=69 / qpmin=0 / no-const-vbv / sar=0 / overscan=0 / videoformat=5 / range=0 / colorprim=9 / transfer=16 / colormatrix=9 / chromaloc=0 / display-window=0 / master-display=G(13250,34500)B(7500,3000)R(34000,16000)WP(15635,16450)L(10000000,1) / max-cll=8325,775 / min-luma=0 / max-luma=1023 / log2-max-poc-lsb=8 / vui-timing-info / vui-hrd-info / slices=1 / no-opt-qp-pps / no-opt-ref-list-length-pps / no-multi-pass-opt-rps / scenecut-bias=0.05 / no-opt-cu-delta-qp / aq-motion / hdr / hdr-opt / no-dhdr10-opt / no-idr-recovery-sei / analysis-reuse-level=5 / scale-factor=0 / refine-intra=0 / refine-inter=0 / refine-mv=0 / no-limit-sao / ctu-info=0 / no-lowpass-dct / refine-mv-type=0 / copy-pic=1 / max-ausize-factor=1.0 / no-dynamic-refine / no-single-sei
Default : Yes
Forced : No
Color range : Limited
Color primaries : BT.2020
Transfer characteristics : PQ
Matrix coefficients : BT.2020 non-constant
Mastering display color primaries : Display P3
Mastering display luminance : min: 0.0001 cd/m2, max: 1000 cd/m2
Maximum Content Light Level : 8325 cd/m2
Maximum Frame-Average Light Level : 775 cd/m2

Audio
ID : 2
Format : AAC LC
Format/Info : Advanced Audio Codec Low Complexity
Codec ID : A_AAC-2
Duration : 2 h 2 min
Bit rate : 848 kb/s
Channel(s) : 8 channels
Channel layout : C L R Ls Rs Lb Rb LFE
Sampling rate : 48.0 kHz
Frame rate : 46.875 FPS (1024 SPF)
Compression mode : Lossy
Delay relative to video : 20 ms
Stream size : 742 MiB (6%)
Language : English
Default : Yes
Forced : No

Text #1
ID : 3
Format : VobSub
Muxing mode : zlib
Codec ID : S_VOBSUB
Codec ID/Info : Picture based subtitle format used on DVDs
Duration : 2 h 1 min
Bit rate : 5 724 b/s
Count of elements : 1049
Stream size : 4.97 MiB (0%)
Language : English
Default : No
Forced : No

Text #2
ID : 4
Format : VobSub
Muxing mode : zlib
Codec ID : S_VOBSUB
Codec ID/Info : Picture based subtitle format used on DVDs
Duration : 1 h 27 min
Bit rate : 544 b/s
Count of elements : 172
Stream size : 350 KiB (0%)
Title : Forced
Language : English
Default : No
Forced : Yes

Text #3
ID : 5
Format : VobSub
Muxing mode : zlib
Codec ID : S_VOBSUB
Codec ID/Info : Picture based subtitle format used on DVDs
Duration : 2 h 1 min
Bit rate : 3 905 b/s
Count of elements : 794
Stream size : 3.39 MiB (0%)
Language : French
Default : No
Forced : No

Text #4
ID : 6
Format : VobSub
Muxing mode : zlib
Codec ID : S_VOBSUB
Codec ID/Info : Picture based subtitle format used on DVDs
Duration : 2 h 1 min
Bit rate : 4 947 b/s
Count of elements : 824
Stream size : 4.29 MiB (0%)
Language : Portuguese
Default : No
Forced : No

Text #5
ID : 7
Format : VobSub
Muxing mode : zlib
Codec ID : S_VOBSUB
Codec ID/Info : Picture based subtitle format used on DVDs
Duration : 2 h 1 min
Bit rate : 3 584 b/s
Count of elements : 668
Stream size : 3.11 MiB (0%)
Language : Spanish
Default : No
Forced : No

Menu
00:00:00.000 : en:Chapter 01
00:06:38.189 : en:Chapter 02
00:14:45.259 : en:Chapter 03
00:18:48.502 : en:Chapter 04
00:27:08.335 : en:Chapter 05
00:34:08.963 : en:Chapter 06
00:42:28.546 : en:Chapter 07
00:51:10.442 : en:Chapter 08
01:00:58.071 : en:Chapter 09
01:09:19.822 : en:Chapter 10
01:14:26.795 : en:Chapter 11
01:23:24.708 : en:Chapter 12
01:28:41.149 : en:Chapter 13
01:35:38.816 : en:Chapter 14
01:41:44.348 : en:Chapter 15
01:46:15.494 : en:Chapter 16

We choose a different approach. Will you support it? I am BvSRips, I make my own rips of movies and series in 1080p x265 in reduced size for those users who do not have a high speed internet. We believe that everyone should be able to enjoy TV or movie entertainment, but what if it can't be seen in my country? What if you don't have subtitles? Do I have to pay $ 10 or $ 15 on each streaming platform? That is why this website was born by sharing files on free servers (mega and 1fichier). We do not place advertising or popups because they are intrusive for the user, we want you to enjoy this website. But also the website and the tools used consume an expense that we assume and that now you can support us.You can become a VIP member and download without limit, read more here. I hope I can count on your help.

You may also like...

Leave a Reply

Your email address will not be published. Required fields are marked *