Seriously Single 2020 1080p NF WEBRip 6CH HEVC x265-BvS [MEGA]

Dineo is the definition of serial monogamist. She dates to fall in love; she falls in love to get married. But she never gets married. She always ends up being dumped. When she meets Lunga Sibiya, he seems to be the man she’s waited her whole life for, a man who shares her values when it comes to love and relationships. Or so she thinks – Until she accidentally finds out that the man she was busy planning her forever with, had been planning his forever with someone else. After a messy breakup with Lunga, her commitment-phobic bestie, Noni, helps Dineo face what she dreads most: life as a single woman. Forced to move out of Lunga’s apartment, Dineo seeks refuge with Noni. But letting go of another failed relationship is hard for Dineo. Now at her lowest point, Noni encourages Dineo to enjoy the spoils of singledom. Have fun. Meet new people. Become her own person. It’s an intimidating notion for Dineo. She hasn’t been single in years. But Noni is happy to be her guide. Together, they …

Links: iMDB | Trailer

Seriously.Single.2020.1080p.NF.web-dl.x265-BvS
MKV-HEVC | 1920×1080  | ENGLISH | Subs.ENG/GER/FRE/SPA | AAC 5.1 | 1.18GB

This content is reserved for registered users. Sign up here o login to be able to see it.

MEGA – 1FICHIER

1080p.WEBRip.6CH.HEVC.x265-BvS

General
Unique ID : 26088213876660492098560456273523483737 (0x13A068403ABE6C319D7599150B49A459)
Complete name : D:\HDFRAEN2155\Seriously.single.2020.1080p.web.x265-BvS.mkv
Format : Matroska
Format version : Version 4
File size : 1.18 GiB
Duration : 1 h 47 min
Overall bit rate : 1 560 kb/s
Movie name : BvSRips
Encoded date : UTC 2020-08-02 02:07:52
Writing application : mkvmerge v46.0.0 (‘No Deeper Escape’) 64-bit
Writing library : libebml v1.3.10 + libmatroska v1.5.2

Video
ID : 1
Format : HEVC
Format/Info : High Efficiency Video Coding
Format profile : [email protected]@Main
Codec ID : V_MPEGH/ISO/HEVC
Duration : 1 h 47 min
Bit rate : 1 302 kb/s
Width : 1 920 pixels
Height : 1 080 pixels
Display aspect ratio : 16:9
Frame rate mode : Constant
Frame rate : 24.000 FPS
Color space : YUV
Chroma subsampling : 4:2:0
Bit depth : 8 bits
Bits/(Pixel*Frame) : 0.026
Stream size : 1 004 MiB (83%)
Writing library : x265 1.5:[Windows][GCC 4.7.0][32 bit] Encoding settings : wpp / ctu=64 / tu-intra-depth=1 / tu-inter-depth=1 / me=1 / subme=2 / merange=57 / no-rect / no-amp / max-merge=2 / temporal-mvp / early-skip / no-fast-cbf / rdpenalty=0 / no-tskip / no-tskip-fast / strong-intra-smoothing / no-lossless / no-cu-lossless / no-constrained-intra / fast-intra / open-gop / interlace=0 / keyint=240 / min-keyint=24 / scenecut=40 / rc-lookahead=15 / bframes=4 / bframe-bias=0 / b-adapt=0 / ref=1 / weightp / no-weightb / aq-mode=0 / aq-strength=0.00 / cbqpoffs=0 / crqpoffs=0 / rd=2 / psy-rd=0.00 / psy-rdoq=0.00 / signhide / lft / sao / no-sao-non-deblock / b-pyramid / no-cutree / rc=crf / crf=25.0 / qcomp=0.60 / qpmin=0 / qpmax=51 / qpstep=4 / ipratio=1.40 / pbratio=1.30
Default : Yes
Forced : No
Color range : Limited
Color primaries : BT.709
Transfer characteristics : BT.709
Matrix coefficients : BT.709

Audio
ID : 2
Format : AAC LC SBR
Format/Info : Advanced Audio Codec Low Complexity with Spectral Band Replication
Commercial name : HE-AAC
Format settings : NBC
Codec ID : A_AAC-5
Duration : 1 h 47 min
Bit rate : 256 kb/s
Channel(s) : 6 channels
Channel layout : C L R Ls Rs LFE
Sampling rate : 48.0 kHz
Frame rate : 23.438 FPS (2048 SPF)
Compression mode : Lossy
Stream size : 197 MiB (16%)
Language : English
Default : Yes
Forced : No

Text
ID : 3
Format : ASS
Codec ID : S_TEXT/ASS
Codec ID/Info : Advanced Sub Station Alpha
Duration : 4 s 500 ms
Bit rate : 149 b/s
Count of elements : 1
Compression mode : Lossless
Stream size : 84.0 Bytes (0%)
Default : Yes
Forced : No

We choose a different approach. Will you support it? I am BvSRips, I make my own rips of movies and series in 1080p x265 in reduced size for those users who do not have a high speed internet. We believe that everyone should be able to enjoy TV or movie entertainment, but what if it can't be seen in my country? What if you don't have subtitles? Do I have to pay $ 10 or $ 15 on each streaming platform? That is why this website was born by sharing files on free servers (mega and 1fichier). We do not place advertising or popups because they are intrusive for the user, we want you to enjoy this website. But also the website and the tools used consume an expense that we assume and that now you can support us.You can become a VIP member and download without limit, read more here. I hope I can count on your help.

You may also like...

Leave a Reply

Your email address will not be published. Required fields are marked *