[SakuraCircle] Sotsugyou Chikan Densha – 02 (DVD 720×480 h264 AAC) [MEGA]

[SakuraCircle] Sotsugyou Chikan Densha – 02 (卒業○○電車 二輌目 女教師の尻はいつも後ろから見られている) – English Softsubs
MP4 – 720×480 – Japanese – Subs.English – 108MB

1FICHIER – MEGA – RAPIDGATOR – NITROFLARE

NFO

General
Unique ID : 220978318861525222658682793045909954359 (0xA63EE04A6BCEB3EB4E37A71E9F59DF37)
Complete name : [SakuraCircle] Sotsugyou Chikan Densha – 02 (DVD 720×480 h264 AAC).mkv
Format : Matroska
Format version : Version 4
File size : 108 MiB
Duration : 16 min 19 s
Overall bit rate : 929 kb/s
Movie name : Sotsugyou Chikan Densha – 02: The Female Teacher’s Butt is Always Being Watched from Behind
Encoded date : UTC 2020-06-27 17:57:34
Writing application : mkvmerge v47.0.0 (‘Black Flag’) 64-bit
Writing library : libebml v1.3.10 + libmatroska v1.5.2
Attachments : Franco Normal.ttf / GARABD.TTF / Lato-Bol.ttf / Lato-BolIta.ttf / segoeuib.ttf / seguisb.ttf

Video
ID : 1
Format : AVC
Format/Info : Advanced Video Codec
Format profile : [email protected]
Format settings : CABAC / 5 Ref Frames
Format settings, CABAC : Yes
Format settings, Reference frames : 5 frames
Codec ID : V_MPEG4/ISO/AVC
Duration : 16 min 19 s
Bit rate : 716 kb/s
Width : 720 pixels
Height : 480 pixels
Display aspect ratio : 16:9
Frame rate mode : Variable
Frame rate : 24.542 FPS
Original frame rate : 29.970 (30000/1001) FPS
Color space : YUV
Chroma subsampling : 4:2:0
Bit depth : 8 bits
Scan type : Progressive
Bits/(Pixel*Frame) : 0.084
Stream size : 83.7 MiB (77%)
Title : Shareraw from hikiko123
Writing library : x264 core 123 r2184+681M 5d72658
Encoding settings : cabac=1 / ref=5 / deblock=1:-2:-2 / analyse=0x3:0x113 / me=umh / subme=7 / psy=1 / fade_compensate=0.00 / psy_rd=1.00:0.00 / mixed_ref=1 / me_range=32 / chroma_me=1 / trellis=1 / 8x8dct=1 / cqm=0 / deadzone=21,11 / fast_pskip=1 / chroma_qp_offset=-2 / threads=7 / sliced_threads=1 / slices=7 / nr=0 / decimate=1 / interlaced=0 / bluray_compat=0 / constrained_intra=0 / fgo=0 / bframes=3 / b_pyramid=2 / b_adapt=2 / b_bias=0 / direct=3 / weightb=1 / open_gop=0 / weightp=2 / keyint=250 / keyint_min=25 / scenecut=40 / intra_refresh=0 / rc_lookahead=40 / rc=crf / mbtree=1 / crf=18.0000 / qcomp=0.60 / qpmin=0 / qpmax=69 / qpstep=4 / ip_ratio=1.40 / aq=1:1.00
Language : Japanese
Default : Yes
Forced : No

Audio
ID : 2
Format : AAC LC
Format/Info : Advanced Audio Codec Low Complexity
Codec ID : A_AAC-2
Duration : 16 min 19 s
Bit rate : 192 kb/s
Channel(s) : 2 channels
Channel layout : L R
Sampling rate : 48.0 kHz
Frame rate : 46.875 FPS (1024 SPF)
Compression mode : Lossy
Stream size : 22.2 MiB (20%)
Title : Shareraw from hikiko123
Language : Japanese
Default : Yes
Forced : No

Text
ID : 3
Format : ASS
Codec ID : S_TEXT/ASS
Codec ID/Info : Advanced Sub Station Alpha
Duration : 16 min 19 s
Bit rate : 69 b/s
Count of elements : 168
Compression mode : Lossless
Stream size : 8.26 KiB (0%)
Title : SakuraCircle – Translated by Tennouji
Language : English
Default : Yes
Forced : No

Menu
00:00:00.000 : :Intro
00:01:08.427 : :Title
00:01:13.432 : :Part 1
00:07:19.547 : :Intermission
00:07:24.552 : :Part 2
00:14:49.247 : :Ending

We choose a different approach. Will you support it? I am BvSRips, I make my own rips of movies and series in 1080p x265 in reduced size for those users who do not have a high speed internet. We believe that everyone should be able to enjoy TV or movie entertainment, but what if it can't be seen in my country? What if you don't have subtitles? Do I have to pay $ 10 or $ 15 on each streaming platform? That is why this website was born by sharing files on free servers (mega and 1fichier). We do not place advertising or popups because they are intrusive for the user, we want you to enjoy this website. But also the website and the tools used consume an expense that we assume and that now you can support us.You can become a VIP member and download without limit, read more here. I hope I can count on your help.

You may also like...

Leave a Reply

Your email address will not be published. Required fields are marked *