Prince Sign ‘o’ the Times 1987 UHD BluRay 2160p DTS-HD MA.5.1 SDR HEVC REMUX-FraMeSToR [VIP]

While on a peril-laden mission to track a missing team of soldiers, the hard-as-nails U.S. Army Ranger, Captain Natalie Artemis, and her elite brothers-in-arms find themselves transported to an alternate universe. There, trapped in a barren desert-world rife with formidable adversaries and subterranean sand-dwelling beasts, for the first time, Captain Artemis and her squad are shocked to discover that their otherwise destructive military weapons are now entirely inadequate to take down the enemy. But, unexpectedly, in their desperate battle for survival, the team stumbles upon a mysterious local huntsman, whose superior combat skills allow him to stay one step ahead of the mighty creatures. Is there an escape from the prison realm? Above all, what does it take to become a fearless monster hunter?

Links: iMDB | Trailer

Prince.Sign.o’the.Times.1987.UHD.BluRay.2160p.DTS-HD.MA.5.1.SDR.HEVC.REMUX-FraMeSToR
MKV-HEVC | 3840×2160 | English | DTS-HD.MA.5.1 | Subs/ENG/FRE/SPA | 40GB

>> DOWNLOAD <<

NFO

General
Unique ID : 123965452160943786488505767948951575238 (0x5D42E0ACECCE87926E5359A1C4E95AC6)
Complete name : Monster.Hunter.2020.UHD.BluRay.2160p.TrueHD.Atmos.7.1.HEVC.REMUX-FraMeSToR.mkv
Format : Matroska
Format version : Version 4
File size : 40.0 GiB
Duration : 1 h 43 min
Overall bit rate mode : Variable
Overall bit rate : 55.5 Mb/s
Movie name : Monster Hunter 4K
Encoded date : UTC 2021-02-23 21:02:41
Writing application : mkvmerge v53.0.0 (‘Fool’s Gold’) 64-bit
Writing library : libebml v1.4.1 + libmatroska v1.6.2
IMDB : tt6475714
TMDB : movie/458576

Video
ID : 1
Format : HEVC
Format/Info : High Efficiency Video Coding
Format profile : Main [email protected]@High
HDR format : SMPTE ST 2086, HDR10 compatible
Codec ID : V_MPEGH/ISO/HEVC
Duration : 1 h 43 min
Bit rate : 50.2 Mb/s
Width : 3 840 pixels
Height : 2 160 pixels
Display aspect ratio : 16:9
Frame rate mode : Constant
Frame rate : 23.976 (24000/1001) FPS
Color space : YUV
Chroma subsampling : 4:2:0 (Type 2)
Bit depth : 10 bits
Bits/(Pixel*Frame) : 0.252
Stream size : 36.1 GiB (90%)
Default : Yes
Forced : No
Color range : Limited
Color primaries : BT.2020
Transfer characteristics : PQ
Matrix coefficients : BT.2020 non-constant
Mastering display color primaries : Display P3
Mastering display luminance : min: 0.0050 cd/m2, max: 4000 cd/m2
Maximum Content Light Level : 1636 cd/m2
Maximum Frame-Average Light Level : 278 cd/m2

Audio #1
ID : 2
Format : MLP FBA 16-ch
Format/Info : Meridian Lossless Packing FBA with 16-channel presentation
Commercial name : Dolby TrueHD with Dolby Atmos
Codec ID : A_TRUEHD
Duration : 1 h 43 min
Bit rate mode : Variable
Bit rate : 4 554 kb/s
Maximum bit rate : 7 392 kb/s
Channel(s) : 8 channels
Channel layout : L R C LFE Ls Rs Lb Rb
Sampling rate : 48.0 kHz
Frame rate : 1 200.000 FPS (40 SPF)
Compression mode : Lossless
Stream size : 3.28 GiB (8%)
Title : TrueHD Atmos 7.1
Language : English
Default : Yes
Forced : No
Number of dynamic objects : 11
Bed channel count : 1 channel
Bed channel configuration : LFE

Audio #2
ID : 3
Format : AC-3
Format/Info : Audio Coding 3
Commercial name : Dolby Digital
Codec ID : A_AC3
Duration : 1 h 43 min
Bit rate mode : Constant
Bit rate : 640 kb/s
Channel(s) : 6 channels
Channel layout : L R C LFE Ls Rs
Sampling rate : 48.0 kHz
Frame rate : 31.250 FPS (1536 SPF)
Compression mode : Lossy
Stream size : 472 MiB (1%)
Title : AC-3 5.1
Language : English
Service kind : Complete Main
Default : No
Forced : No

Text #1
ID : 4
Format : PGS
Codec ID : S_HDMV/PGS
Codec ID/Info : Picture based subtitle format used on BDs/HD-DVDs
Duration : 1 h 29 min
Bit rate : 11.5 kb/s
Count of elements : 944
Stream size : 7.40 MiB (0%)
Title : English
Language : English
Default : No
Forced : No

Text #2
ID : 5
Format : PGS
Codec ID : S_HDMV/PGS
Codec ID/Info : Picture based subtitle format used on BDs/HD-DVDs
Duration : 1 h 35 min
Bit rate : 17.3 kb/s
Count of elements : 1637
Stream size : 11.8 MiB (0%)
Title : English (SDH)
Language : English
Default : No
Forced : No

Text #3
ID : 6
Format : PGS
Codec ID : S_HDMV/PGS
Codec ID/Info : Picture based subtitle format used on BDs/HD-DVDs
Duration : 1 h 41 min
Bit rate : 8 781 b/s
Count of elements : 900
Stream size : 6.39 MiB (0%)
Title : French
Language : French
Default : No
Forced : No

Text #4
ID : 7
Format : PGS
Codec ID : S_HDMV/PGS
Codec ID/Info : Picture based subtitle format used on BDs/HD-DVDs
Duration : 1 h 41 min
Bit rate : 9 544 b/s
Count of elements : 914
Stream size : 6.94 MiB (0%)
Title : Spanish (Latin American)
Language : Spanish
Default : No
Forced : No

Menu
00:00:00.000 : en:Chapter 1
00:04:59.424 : en:Chapter 2
00:10:28.211 : en:Chapter 3
00:15:26.342 : en:Chapter 4
00:21:12.938 : en:Chapter 5
00:24:53.409 : en:Chapter 6
00:31:53.328 : en:Chapter 7
00:35:58.698 : en:Chapter 8
00:41:10.301 : en:Chapter 9
00:48:05.007 : en:Chapter 10
00:54:10.080 : en:Chapter 11
01:01:36.109 : en:Chapter 12
01:06:18.516 : en:Chapter 13
01:13:21.689 : en:Chapter 14
01:23:01.727 : en:Chapter 15
01:31:21.601 : en:Chapter 16
01:35:38.942 : en:Chapter 17

 

You may also like...

Leave a Reply

Your email address will not be published. Required fields are marked *