Perfume – The Story of a Murderer (2006) 2160p BluRay x265 HEVC 10bit HDR AAC 5.1 Tigole [G.DRIVE]

Perfume---The-Story-of-a-Murderer-(2006)-2160p-BluRay-x265-HEVC-10bit-HDR-AAC-5.1-Tigole

Jean-Baptiste Grenouille, born with a superior olfactory sense, creates the world’s finest perfume. His work, however, takes a dark turn as he searches for the ultimate scent.

Links: iMDB Trailer

Perfume – The Story of a Murderer (2006) 2160p BluRay x265 HEVC 10bit HDR AAC 5.1 Tigole
MKV-HEVC | 3840×1636 | ENGLISH | Subs.ENG/FRE/GER/SPA | AAC 5.1 | 14.30GB

This content is reserved for registered users. Sign up here o login to be able to see it.

MEGA – 1FICHIER

NFO

General
Unique ID : 268193540601385115034734985635193193920 (0xC9C43273696B09A529B9C70E8ADC85C0)
Complete name : Perfume – The Story of a Murderer (2006) (2160p BluRay x265 10bit HDR Tigole).mkv
Format : Matroska
Format version : Version 4
File size : 14.3 GiB
Duration : 2 h 27 min
Overall bit rate : 13.9 Mb/s
Movie name : Perfume: The Story of a Murderer (2006)
Encoded date : UTC 2018-09-27 12:22:20
Writing application : mkvmerge v26.0.0 (‘In The Game’) 64-bit
Writing library : libebml v1.3.6 + libmatroska v1.4.9

Video
ID : 1
Format : HEVC
Format/Info : High Efficiency Video Coding
Format profile : Main [email protected]@Main
HDR format : SMPTE ST 2086, HDR10 compatible
Codec ID : V_MPEGH/ISO/HEVC
Duration : 2 h 27 min
Bit rate : 13.0 Mb/s
Width : 3 840 pixels
Height : 1 636 pixels
Display aspect ratio : 2.35:1
Frame rate mode : Constant
Frame rate : 23.976 (24000/1001) FPS
Color space : YUV
Chroma subsampling : 4:2:0
Bit depth : 10 bits
Bits/(Pixel*Frame) : 0.086
Stream size : 13.4 GiB (94%)
Writing library : x265 2.8+40-0106f9f2f867:[Windows][GCC 7.3.0][64 bit] 10bit
Encoding settings : cpuid=1111039 / frame-threads=3 / numa-pools=8 / wpp / no-pmode / no-pme / no-psnr / no-ssim / log-level=2 / input-csp=1 / input-res=3840×1636 / interlace=0 / total-frames=212210 / level-idc=0 / high-tier=1 / uhd-bd=0 / ref=4 / no-allow-non-conformance / repeat-headers / annexb / no-aud / no-hrd / info / hash=0 / no-temporal-layers / open-gop / min-keyint=23 / keyint=250 / gop-lookahead=0 / bframes=4 / b-adapt=2 / b-pyramid / bframe-bias=0 / rc-lookahead=25 / lookahead-slices=4 / scenecut=40 / radl=0 / no-intra-refresh / ctu=64 / min-cu-size=8 / rect / no-amp / max-tu-size=32 / tu-inter-depth=1 / tu-intra-depth=1 / limit-tu=0 / rdoq-level=2 / dynamic-rd=0.00 / no-ssim-rd / signhide / no-tskip / nr-intra=0 / nr-inter=0 / no-constrained-intra / strong-intra-smoothing / max-merge=3 / limit-refs=3 / limit-modes / me=3 / subme=3 / merange=57 / temporal-mvp / weightp / no-weightb / no-analyze-src-pics / deblock=0:0 / sao / no-sao-non-deblock / rd=4 / no-early-skip / rskip / no-fast-intra / no-tskip-fast / no-cu-lossless / no-b-intra / no-splitrd-skip / rdpenalty=0 / psy-rd=2.00 / psy-rdoq=1.00 / no-rd-refine / no-lossless / cbqpoffs=0 / crqpoffs=0 / rc=crf / crf=18.0 / qcomp=0.60 / qpstep=4 / stats-write=0 / stats-read=0 / ipratio=1.40 / pbratio=1.30 / aq-mode=3 / aq-strength=1.00 / cutree / zone-count=0 / no-strict-cbr / qg-size=32 / no-rc-grain / qpmax=69 / qpmin=0 / no-const-vbv / sar=0 / overscan=0 / videoformat=5 / range=0 / colorprim=9 / transfer=16 / colormatrix=9 / chromaloc=0 / display-window=0 / master-display=G(13250,34500)B(7500,3000)R(34000,16000)WP(15635,16450)L(10000000,50) / max-cll=10000,400 / min-luma=0 / max-luma=1023 / log2-max-poc-lsb=8 / vui-timing-info / vui-hrd-info / slices=1 / no-opt-qp-pps / no-opt-ref-list-length-pps / no-multi-pass-opt-rps / scenecut-bias=0.05 / no-opt-cu-delta-qp / aq-motion / hdr / hdr-opt / no-dhdr10-opt / no-idr-recovery-sei / analysis-reuse-level=5 / scale-factor=0 / refine-intra=0 / refine-inter=0 / refine-mv=0 / no-limit-sao / ctu-info=0 / no-lowpass-dct / refine-mv-type=0 / copy-pic=1 / max-ausize-factor=1.0 / no-dynamic-refine / no-single-sei
Default : Yes
Forced : No
Color range : Limited
Color primaries : BT.2020
Transfer characteristics : PQ
Matrix coefficients : BT.2020 non-constant
Mastering display color primaries : Display P3
Mastering display luminance : min: 0.0050 cd/m2, max: 1000 cd/m2
Maximum Content Light Level : 10000 cd/m2
Maximum Frame-Average Light Level : 400 cd/m2

Audio
ID : 2
Format : AAC LC
Format/Info : Advanced Audio Codec Low Complexity
Codec ID : A_AAC-2
Duration : 2 h 27 min
Bit rate : 760 kb/s
Channel(s) : 6 channels
Channel layout : C L R Ls Rs LFE
Sampling rate : 48.0 kHz
Frame rate : 46.875 FPS (1024 SPF)
Compression mode : Lossy
Delay relative to video : 20 ms
Stream size : 802 MiB (5%)
Language : English
Default : Yes
Forced : No

Text #1
ID : 3
Format : VobSub
Muxing mode : zlib
Codec ID : S_VOBSUB
Codec ID/Info : Picture based subtitle format used on DVDs
Duration : 2 h 26 min
Bit rate : 3 168 b/s
Count of elements : 900
Stream size : 3.31 MiB (0%)
Language : English
Default : No
Forced : No

Text #2
ID : 4
Format : VobSub
Muxing mode : zlib
Codec ID : S_VOBSUB
Codec ID/Info : Picture based subtitle format used on DVDs
Duration : 2 h 17 min
Bit rate : 3 764 b/s
Count of elements : 760
Stream size : 3.71 MiB (0%)
Language : Danish
Default : No
Forced : No

Text #3
ID : 5
Format : VobSub
Muxing mode : zlib
Codec ID : S_VOBSUB
Codec ID/Info : Picture based subtitle format used on DVDs
Duration : 2 h 17 min
Bit rate : 3 414 b/s
Count of elements : 760
Stream size : 3.37 MiB (0%)
Language : Finnish
Default : No
Forced : No

Text #4
ID : 6
Format : VobSub
Muxing mode : zlib
Codec ID : S_VOBSUB
Codec ID/Info : Picture based subtitle format used on DVDs
Duration : 2 h 27 min
Bit rate : 4 884 b/s
Count of elements : 1507
Stream size : 5.14 MiB (0%)
Language : French
Default : No
Forced : No

Text #5
ID : 7
Format : VobSub
Muxing mode : zlib
Codec ID : S_VOBSUB
Codec ID/Info : Picture based subtitle format used on DVDs
Duration : 2 h 17 min
Bit rate : 13.3 kb/s
Count of elements : 2060
Stream size : 13.1 MiB (0%)
Title : Commentary
Language : French
Default : No
Forced : No

Text #6
ID : 8
Format : VobSub
Muxing mode : zlib
Codec ID : S_VOBSUB
Codec ID/Info : Picture based subtitle format used on DVDs
Duration : 2 h 16 min
Bit rate : 6 283 b/s
Count of elements : 839
Stream size : 6.12 MiB (0%)
Language : German
Default : No
Forced : No

Text #7
ID : 9
Format : VobSub
Muxing mode : zlib
Codec ID : S_VOBSUB
Codec ID/Info : Picture based subtitle format used on DVDs
Duration : 2 h 16 min
Bit rate : 19.7 kb/s
Count of elements : 3723
Stream size : 19.2 MiB (0%)
Language : Japanese
Default : No
Forced : No

Text #8
ID : 10
Format : VobSub
Muxing mode : zlib
Codec ID : S_VOBSUB
Codec ID/Info : Picture based subtitle format used on DVDs
Duration : 2 h 17 min
Bit rate : 89.8 kb/s
Count of elements : 11455
Stream size : 88.5 MiB (1%)
Title : Commentary
Language : Japanese
Default : No
Forced : No

Text #9
ID : 11
Format : VobSub
Muxing mode : zlib
Codec ID : S_VOBSUB
Codec ID/Info : Picture based subtitle format used on DVDs
Duration : 2 h 17 min
Bit rate : 3 544 b/s
Count of elements : 760
Stream size : 3.50 MiB (0%)
Language : Norwegian Bokmal
Default : No
Forced : No

Text #10
ID : 12
Format : VobSub
Muxing mode : zlib
Codec ID : S_VOBSUB
Codec ID/Info : Picture based subtitle format used on DVDs
Duration : 2 h 20 min
Bit rate : 5 253 b/s
Count of elements : 831
Stream size : 5.27 MiB (0%)
Language : Polish
Default : No
Forced : No

Text #11
ID : 13
Format : VobSub
Muxing mode : zlib
Codec ID : S_VOBSUB
Codec ID/Info : Picture based subtitle format used on DVDs
Duration : 2 h 26 min
Bit rate : 2 942 b/s
Count of elements : 903
Stream size : 3.07 MiB (0%)
Language : Spanish
Default : No
Forced : No

Text #12
ID : 14
Format : VobSub
Muxing mode : zlib
Codec ID : S_VOBSUB
Codec ID/Info : Picture based subtitle format used on DVDs
Duration : 2 h 17 min
Bit rate : 8 149 b/s
Count of elements : 2230
Stream size : 8.03 MiB (0%)
Title : Commentary
Language : Spanish
Default : No
Forced : No

Text #13
ID : 15
Format : VobSub
Muxing mode : zlib
Codec ID : S_VOBSUB
Codec ID/Info : Picture based subtitle format used on DVDs
Duration : 2 h 18 min
Bit rate : 3 624 b/s
Count of elements : 761
Stream size : 3.58 MiB (0%)
Language : Swedish
Default : No
Forced : No

Menu
00:00:00.000 : en:Start
00:06:51.500 : en:In The Orphanage
00:11:00.542 : en:Collecting Scents
00:14:12.208 : en:Paris
00:17:57.583 : en:The Mirabelle Girl
00:22:24.417 : en:First Victim
00:27:41.250 : en:Giuseppe Baldini
00:33:30.792 : en:The Best Nose
00:39:16.625 : en:Cupid and Psyche
00:45:07.042 : en:The 13th Essence
00:49:23.625 : en:10000 Roses
00:55:25.958 : en:Grenouille is Sick
00:59:26.625 : en:Dead Stone
01:03:26.708 : en:Laura
01:08:51.458 : en:Madame Arnulfi
01:13:32.167 : en:A Delivery of Blooms
01:18:39.792 : en:to Conserve the Scent
01:23:16.250 : en:Hide and Seek
01:26:52.292 : en:Search for the Twins
01:33:27.792 : en:Excommunication
01:39:05.042 : en:Too Many Worries
01:42:59.417 : en:Terrible Discovery
01:47:51.000 : en:The Last Victim
01:52:39.958 : en:Grenouille Gets Arrested
01:56:54.250 : en:To The Execution
02:00:41.333 : en:The Ultimate Scent
02:05:14.917 : en:The Great Orgy
02:09:37.208 : en:Forgive Me
02:14:39.625 : en:An Angel
02:17:45.208 : en:Credits

We choose a different approach. Will you support it? I am BvSRips, I make my own rips of movies and series in 1080p x265 in reduced size for those users who do not have a high speed internet. We believe that everyone should be able to enjoy TV or movie entertainment, but what if it can't be seen in my country? What if you don't have subtitles? Do I have to pay $ 10 or $ 15 on each streaming platform? That is why this website was born by sharing files on free servers (mega and 1fichier). We do not place advertising or popups because they are intrusive for the user, we want you to enjoy this website. But also the website and the tools used consume an expense that we assume and that now you can support us.You can become a VIP member and download without limit, read more here. I hope I can count on your help.

You may also like...

Leave a Reply

Your email address will not be published. Required fields are marked *