Penny Dreadful All Season | 720p & 1080p WEBRip x265-BvS

Penny Dreadful

Penny Dreadful is a frightening psychological thriller that weaves together the monsters of classic stories. The explorer Sir Malcolm Murray, American gunslinger Ethan Chandler, Miss Vanessa Ives and others unite to combat supernatural threats in Victorian London. They encounter some of literature’s most terrifying characters, including Dr. Frankenstein, Dorian Gray, the Wolfman and iconic figures from the novel Dracula.

Links: HOMEPAGE – IMDB

Note: In English with English Selectable Subtitles

DOWNLOAD

VIP (GOOGLE DRIVE)

This content is reserved for registered users. Sign up here o login to be able to see it.

FREE

  • SEASON 1: 720p x265 (ONLY VIP)
  • SEASON 2: 720p x265 (ONLY VIP)
  • SEASON 3: 720p x265 (ONLY VIP)

NFO

WEBRip.x264-ION10

 

720p.x265-BvS

General
Unique ID : 195985598220280333761012745832021741770 (0x93717406C1DF0E968196FACE6C69D0CA)
Complete name : Penny.Dreadful.S01E01.Night.Work.720p.BluRay.2CH.x265.HEVC.mkv
Format : Matroska
Format version : Version 4
File size : 167 MiB
Duration : 53 min 1 s
Overall bit rate : 440 kb/s
Movie name : PSArips.com | Penny.Dreadful.S01E01.Night.Work.720p.BluRay.2CH.x265.HEVC-PSA
Encoded date : UTC 2015-04-29 20:18:44
Writing application : mkvmerge v7.8.0 (‘River Man’) 64bit built on Mar 27 2015 16:31:37
Writing library : libebml v1.3.1 + libmatroska v1.4.2

Video
ID : 1
Format : HEVC
Format/Info : High Efficiency Video Coding
Format profile : [email protected]@Main
Codec ID : V_MPEGH/ISO/HEVC
Duration : 53 min 1 s
Bit rate : 374 kb/s
Width : 1 280 pixels
Height : 720 pixels
Display aspect ratio : 16:9
Frame rate mode : Constant
Frame rate : 23.976 (24000/1001) FPS
Color space : YUV
Chroma subsampling : 4:2:0
Bit depth : 8 bits
Bits/(Pixel*Frame) : 0.017
Stream size : 142 MiB (85%)
Default : Yes
Forced : No
Color range : Limited
Color primaries : BT.709
Transfer characteristics : BT.709
Matrix coefficients : BT.709

Audio
ID : 2
Format : AAC LC SBR
Format/Info : Advanced Audio Codec Low Complexity with Spectral Band Replication
Commercial name : HE-AAC
Format settings : NBC
Codec ID : A_AAC-5
Duration : 53 min 1 s
Bit rate : 64.0 kb/s
Channel(s) : 2 channels
Channel layout : L R
Sampling rate : 48.0 kHz
Frame rate : 23.438 FPS (2048 SPF)
Compression mode : Lossy
Delay relative to video : -105 ms
Stream size : 24.3 MiB (15%)
Title : Stereo
Language : English
Default : Yes
Forced : No

Text
ID : 3
Format : UTF-8
Codec ID : S_TEXT/UTF8
Codec ID/Info : UTF-8 Plain Text
Duration : 51 min 45 s
Bit rate : 44 b/s
Count of elements : 505
Stream size : 16.8 KiB (0%)
Default : Yes
Forced : No

1080p.x265-BvS

 

Leave a Reply

Your email address will not be published. Required fields are marked *