OtoBoku Trinkle Stars – 01 (DVD 720×480 h264 AAC) [MEGA]

[SakuraCircle] OtoBoku Trinkle Stars – 01 (DVD 720×480 h264 AAC)

MP4 – 720×480 – Japanese – Subs.English – 148MB

>> DOWNLOAD <<

NFO

General
Unique ID : 148263954140788967017123558842532643026 (0x6F8A995133CFD25C9F2284B1D60840D2)
Complete name : [SakuraCircle] OtoBoku Trinkle Stars – 01 (DVD 720×480 h264 AAC).mkv
Format : Matroska
Format version : Version 4
File size : 102 MiB
Duration : 18 min 28 s
Overall bit rate : 771 kb/s
Movie name : Otome wa Boku ni Koi Shiteru: Trinkle Stars The Animation (2022) – 01
Encoded date : UTC 2022-06-25 13:36:58
Writing application : mkvmerge v68.0.0 (‘The Curtain’) 64-bit
Writing library : libebml v1.4.2 + libmatroska v1.6.4
Attachments : brrc_B.TTC / Franco Normal.ttf / Lato-Bol.ttf / Lato-BolIta.ttf / segoeui.ttf / segoeuib.ttf / seguisb.ttf

Video
ID : 1
Format : AVC
Format/Info : Advanced Video Codec
Format profile : [email protected]
Format settings : CABAC / 5 Ref Frames
Format settings, CABAC : Yes
Format settings, Reference frames : 5 frames
Codec ID : V_MPEG4/ISO/AVC
Duration : 18 min 28 s
Bit rate : 530 kb/s
Width : 720 pixels
Height : 480 pixels
Display aspect ratio : 16:9
Frame rate mode : Constant
Frame rate : 23.976 (24000/1001) FPS
Original frame rate : 29.970 (30000/1001) FPS
Color space : YUV
Chroma subsampling : 4:2:0
Bit depth : 8 bits
Scan type : Progressive
Bits/(Pixel*Frame) : 0.064
Stream size : 70.0 MiB (69%)
Title : Shareraw from hikiko123
Writing library : x264 core 123 r2184+681M 5d72658
Encoding settings : cabac=1 / ref=5 / deblock=1:-1:-1 / analyse=0x3:0x113 / me=umh / subme=9 / psy=1 / fade_compensate=0.00 / psy_rd=1.00:0.00 / mixed_ref=1 / me_range=32 / chroma_me=1 / trellis=1 / 8x8dct=1 / cqm=0 / deadzone=21,11 / fast_pskip=1 / chroma_qp_offset=-2 / threads=12 / sliced_threads=0 / nr=0 / decimate=1 / interlaced=0 / bluray_compat=0 / constrained_intra=0 / fgo=0 / bframes=4 / b_pyramid=2 / b_adapt=2 / b_bias=0 / direct=3 / weightb=1 / open_gop=0 / weightp=2 / keyint=250 / keyint_min=25 / scenecut=40 / intra_refresh=0 / rc_lookahead=40 / rc=crf / mbtree=1 / crf=18.0000 / qcomp=0.60 / qpmin=0 / qpmax=69 / qpstep=4 / ip_ratio=1.40 / aq=1:1.00
Language : Japanese
Default : Yes
Forced : No

Audio
ID : 2
Format : AAC LC
Format/Info : Advanced Audio Codec Low Complexity
Codec ID : A_AAC-2
Duration : 18 min 28 s
Bit rate : 192 kb/s
Channel(s) : 2 channels
Channel layout : L R
Sampling rate : 48.0 kHz
Frame rate : 46.875 FPS (1024 SPF)
Compression mode : Lossy
Stream size : 25.0 MiB (25%)
Title : Shareraw from hikiko123
Language : Japanese
Default : Yes
Forced : No

Text
ID : 3
Format : ASS
Codec ID : S_TEXT/ASS
Codec ID/Info : Advanced Sub Station Alpha
Duration : 17 min 52 s
Bit rate : 131 b/s
Count of elements : 248
Compression mode : Lossless
Stream size : 17.2 KiB (0%)
Title : SakuraCircle – Translated by Tennouji
Language : English
Default : Yes
Forced : No

Menu
00:00:00.000 : :Intro
00:02:01.872 : :Title
00:02:07.878 : :Part 1
00:03:06.269 : :Part 2
00:05:46.429 : :Part 3
00:09:30.028 : :Part 4
00:10:39.097 : :Part 5
00:13:18.464 : :Part 6
00:16:52.553 : :Ending

(He/Him) He's BvSRips. I dedicate myself to sharing files on this blog for free. But it is difficult to maintain the links online for a long time, they are denounced and deleted, reuploading costs more work, that is why a section for VIP users was created, where they can download all the files published 100% in MEGA, as premium, without spend more. I would greatly appreciate your collaboration so that this blog remains online for a longer time.

BUY VIP HERE

You may also like...

Leave a Reply

Your email address will not be published. Required fields are marked *