Otaku ni Yasashii Gal toka, Kyonyuu no Osananajimi toka. – 02 (DVD 720×480 h264 AAC) [MEGA]

Otaku ni Yasashii Gal toka, Kyonyuu no Osananajimi toka

[SakuraCircle] Otaku ni Yasashii Gal toka, Kyonyuu no Osananajimi toka. – 02 (DVD 720×480 h264 AAC)

MP4 – 720×480 – Japanese – Subs.English – 148MB

>> DOWNLOAD <<

NFO

General
Unique ID : 238508196364426585538781434887791857000 (0xB36F01FAFC9C30FAE3124FB433B64D68)
Complete name : [SakuraCircle] Otaku ni Yasashii Gal toka, Kyonyuu no Osananajimi toka. – 02 (DVD 720×480 h264 AAC).mkv
Format : Matroska
Format version : Version 4
File size : 148 MiB
Duration : 20 min 10 s
Overall bit rate : 1 028 kb/s
Movie name : Otaku ni Yasashii Gal toka, Kyonyuu no Osananajimi toka. – 02
Encoded date : UTC 2022-06-20 12:17:15
Writing application : mkvmerge v68.0.0 (‘The Curtain’) 64-bit
Writing library : libebml v1.4.2 + libmatroska v1.6.4
Attachments : FOTPopHappinessStrp-ExtraBold.otf / Lato-Bol.ttf / OpenSans-Semibold.ttf

Video
ID : 1
Format : AVC
Format/Info : Advanced Video Codec
Format profile : [email protected]
Format settings : CABAC / 5 Ref Frames
Format settings, CABAC : Yes
Format settings, Reference frames : 5 frames
Codec ID : V_MPEG4/ISO/AVC
Duration : 20 min 10 s
Bit rate : 770 kb/s
Width : 720 pixels
Height : 480 pixels
Display aspect ratio : 16:9
Frame rate mode : Constant
Frame rate : 23.976 (24000/1001) FPS
Original frame rate : 29.970 (30000/1001) FPS
Color space : YUV
Chroma subsampling : 4:2:0
Bit depth : 8 bits
Scan type : Progressive
Bits/(Pixel*Frame) : 0.093
Stream size : 111 MiB (75%)
Title : Shareraw from hikiko123
Writing library : x264 core 123 r2184+681M 5d72658
Encoding settings : cabac=1 / ref=5 / deblock=1:-1:-1 / analyse=0x3:0x113 / me=umh / subme=9 / psy=1 / fade_compensate=0.00 / psy_rd=1.00:0.00 / mixed_ref=1 / me_range=32 / chroma_me=1 / trellis=1 / 8x8dct=1 / cqm=0 / deadzone=21,11 / fast_pskip=1 / chroma_qp_offset=-2 / threads=12 / sliced_threads=0 / nr=0 / decimate=1 / interlaced=0 / bluray_compat=0 / constrained_intra=0 / fgo=0 / bframes=4 / b_pyramid=2 / b_adapt=2 / b_bias=0 / direct=3 / weightb=1 / open_gop=0 / weightp=2 / keyint=250 / keyint_min=25 / scenecut=40 / intra_refresh=0 / rc_lookahead=40 / rc=crf / mbtree=1 / crf=18.0000 / qcomp=0.60 / qpmin=0 / qpmax=69 / qpstep=4 / ip_ratio=1.40 / aq=1:1.00
Language : Japanese
Default : Yes
Forced : No

Audio
ID : 2
Format : AAC LC
Format/Info : Advanced Audio Codec Low Complexity
Codec ID : A_AAC-2
Duration : 20 min 10 s
Bit rate : 254 kb/s
Channel(s) : 2 channels
Channel layout : L R
Sampling rate : 48.0 kHz
Frame rate : 46.875 FPS (1024 SPF)
Compression mode : Lossy
Stream size : 36.6 MiB (25%)
Title : Shareraw from hikiko123
Language : Japanese
Default : Yes
Forced : No

Text
ID : 3
Format : ASS
Codec ID : S_TEXT/ASS
Codec ID/Info : Advanced Sub Station Alpha
Duration : 19 min 6 s
Bit rate : 73 b/s
Count of elements : 189
Compression mode : Lossless
Stream size : 10.3 KiB (0%)
Title : SakuraCircle – Translated by Tennouji
Language : English
Default : Yes
Forced : No

Menu
00:00:00.000 : :Title
00:00:07.549 : :Part 1
00:01:13.782 : :Part 2
00:04:36.193 : :Part 3
00:07:56.810 : :Part 4
00:08:27.841 : :Part 5
00:12:54.315 : :Part 6
00:15:27.844 : :Part 7
00:15:59.125 : :Part 8
00:17:37.932 : :Ending
00:19:13.486 : :Gallery

(He/Him) He's BvSRips. I dedicate myself to sharing files on this blog for free. But it is difficult to maintain the links online for a long time, they are denounced and deleted, reuploading costs more work, that is why a section for VIP users was created, where they can download all the files published 100% in MEGA, as premium, without spend more. I would greatly appreciate your collaboration so that this blog remains online for a longer time.

BUY VIP HERE

You may also like...

Leave a Reply

Your email address will not be published. Required fields are marked *