Origenes Secretos 2020 1080p NF WEBRip 6CH HEVC x265-BvS [MEGA]

Origenes.secretos.2020.1080p.nf.web-dl.x265-BvS

Heroes do not exist. David, a young policeman who has recently moved to Madrid, is forced to collaborate with Jorge Elías – an endearing freak and owner of a comic book shop – in order to solve a series of atrocious murders that recreate the secret origins of the classic superheroes. Each grotesque murder is a piece of a jigsaw puzzle that has the streets of Madrid as a backdrop, but whose complete image they are unable to distinguish. Jorge’s encyclopedic knowledge about the comic world and the unexpected discovery of David’s dark past will be fundamental in helping them solve the enigma hidden behind the awful crimes. The clues will guide them through the Spanish capital, along a labyrinth designed by a disturbed criminal mind and the only person who knows how to find the exit. Will they be able to unravel the tangled mess of clues and win the game against the troubled criminal that tries to manipulate them? They say that, sometimes, it is necessary to put on a suit and get out …

Links: iMDB | Trailer

Unknown.Origins.2020.1080p.NF.WEBRip.x265-BvS
MKV-HEVC | 1920×1080 | SPANISH | Subs.ENG/GER/SPA/FRE | AAC 5.1 | 1.03GB

This content is reserved for registered users. Sign up here o login to be able to see it.

MEGA – 1FICHIER

1080p.WEBRip.6CH.HEVC.x265-BvS

General
Unique ID : 337776656092076105832311945448490478585 (0xFE1D6AEAFF44E15C7AFB3DD70F332BF9)
Complete name : Origenes.secretos.2020.1080p.nf.web-dl.x265-BvS.mkv
Format : Matroska
Format version : Version 4
File size : 1.03 GiB
Duration : 1 h 36 min
Overall bit rate : 1 516 kb/s
Movie name : BvSRips
Encoded date : UTC 2020-08-28 20:28:22
Writing application : mkvmerge v46.0.0 (‘No Deeper Escape’) 64-bit
Writing library : libebml v1.3.10 + libmatroska v1.5.2

Video
ID : 1
Format : HEVC
Format/Info : High Efficiency Video Coding
Format profile : [email protected]@Main
Codec ID : V_MPEGH/ISO/HEVC
Duration : 1 h 36 min
Bit rate : 1 258 kb/s
Width : 1 920 pixels
Height : 1 080 pixels
Display aspect ratio : 16:9
Frame rate mode : Constant
Frame rate : 24.000 FPS
Color space : YUV
Chroma subsampling : 4:2:0
Bit depth : 8 bits
Bits/(Pixel*Frame) : 0.025
Stream size : 873 MiB (83%)
Writing library : x265 1.5:[Windows][GCC 4.7.0][32 bit] Encoding settings : wpp / ctu=64 / tu-intra-depth=1 / tu-inter-depth=1 / me=1 / subme=2 / merange=57 / no-rect / no-amp / max-merge=2 / temporal-mvp / early-skip / no-fast-cbf / rdpenalty=0 / no-tskip / no-tskip-fast / strong-intra-smoothing / no-lossless / no-cu-lossless / no-constrained-intra / fast-intra / open-gop / interlace=0 / keyint=240 / min-keyint=24 / scenecut=40 / rc-lookahead=15 / bframes=4 / bframe-bias=0 / b-adapt=0 / ref=1 / weightp / no-weightb / aq-mode=0 / aq-strength=0.00 / cbqpoffs=0 / crqpoffs=0 / rd=2 / psy-rd=0.00 / psy-rdoq=0.00 / signhide / lft / sao / no-sao-non-deblock / b-pyramid / no-cutree / rc=crf / crf=25.0 / qcomp=0.60 / qpmin=0 / qpmax=51 / qpstep=4 / ipratio=1.40 / pbratio=1.30
Default : Yes
Forced : No
Color range : Limited
Color primaries : BT.709
Transfer characteristics : BT.709
Matrix coefficients : BT.709

Audio
ID : 2
Format : AAC LC SBR
Format/Info : Advanced Audio Codec Low Complexity with Spectral Band Replication
Commercial name : HE-AAC
Format settings : NBC
Codec ID : A_AAC-5
Duration : 1 h 36 min
Bit rate : 256 kb/s
Channel(s) : 6 channels
Channel layout : C L R Ls Rs LFE
Sampling rate : 48.0 kHz
Frame rate : 23.438 FPS (2048 SPF)
Compression mode : Lossy
Stream size : 178 MiB (17%)
Language : Spanish
Default : Yes
Forced : No

Text
ID : 3
Format : ASS
Codec ID : S_TEXT/ASS
Codec ID/Info : Advanced Sub Station Alpha
Duration : 4 s 500 ms
Bit rate : 149 b/s
Count of elements : 1
Compression mode : Lossless
Stream size : 84.0 Bytes (0%)
Default : Yes
Forced : No

We choose a different approach. Will you support it? I am BvSRips, I make my own rips of movies and series in 1080p x265 in reduced size for those users who do not have a high speed internet. We believe that everyone should be able to enjoy TV or movie entertainment, but what if it can't be seen in my country? What if you don't have subtitles? Do I have to pay $ 10 or $ 15 on each streaming platform? That is why this website was born by sharing files on free servers (mega and 1fichier). We do not place advertising or popups because they are intrusive for the user, we want you to enjoy this website. But also the website and the tools used consume an expense that we assume and that now you can support us.You can become a VIP member and download without limit, read more here. I hope I can count on your help.

You may also like...

1 Response

Leave a Reply

Your email address will not be published. Required fields are marked *