One Of Us All Season | 720p & 1080p WEBRip x265-BvS

One.of.Us.S01

A horrific double murder rocks the lives of two families living side-by-side in isolated rural Scotland. But instead of focusing on the investigation, One Of Us explores the fallout for the grieving relatives, and the dark consequences that threaten to shatter their lives.

Links: HOMEPAGE – iMDB

DOWNLOAD

VIP (GOOGLE DRIVE)

This content is reserved for registered users. Sign up here o login to be able to see it.

FREE

NFO

WEBRip.x264-ION10

General
Complete name : One.Of.Us.S01E01.WEBRip.x264-ION10.mp4
Format : MPEG-4
Format profile : Base Media
Codec ID : isom (isom/iso2/avc1/mp41)
File size : 571 MiB
Duration : 58 min 41 s
Overall bit rate : 1 360 kb/s
Movie name : One.Of.Us.S01E01.WEBRip.x264-ION10
Encoded date : UTC 2020-08-05 07:54:12
Tagged date : UTC 2020-08-05 07:54:12
Writing application : Lavf58.0.101
Comment : One.Of.Us.S01E01.WEBRip.x264-ION10

Video
ID : 1
Format : AVC
Format/Info : Advanced Video Codec
Format profile : [email protected]
Format settings : CABAC / 5 Ref Frames
Format settings, CABAC : Yes
Format settings, Reference frames : 5 frames
Codec ID : avc1
Codec ID/Info : Advanced Video Coding
Duration : 58 min 41 s
Bit rate : 1 100 kb/s
Width : 720 pixels
Height : 400 pixels
Display aspect ratio : 16:9
Frame rate mode : Constant
Frame rate : 25.000 FPS
Color space : YUV
Chroma subsampling : 4:2:0
Bit depth : 8 bits
Scan type : Progressive
Bits/(Pixel*Frame) : 0.153
Stream size : 461 MiB (81%)
Title : One.Of.Us.S01E01.WEBRip.x264-ION10
Writing library : x264 core 148 r2795M aaa9aa8
Encoding settings : cabac=1 / ref=5 / deblock=1:-1:-1 / analyse=0x3:0x113 / me=umh / subme=9 / psy=1 / psy_rd=1.00:0.15 / mixed_ref=1 / me_range=16 / chroma_me=1 / trellis=2 / 8x8dct=1 / cqm=0 / deadzone=21,11 / fast_pskip=1 / chroma_qp_offset=-3 / threads=24 / lookahead_threads=2 / sliced_threads=0 / nr=0 / decimate=1 / interlaced=0 / bluray_compat=0 / constrained_intra=0 / bframes=3 / b_pyramid=2 / b_adapt=2 / b_bias=0 / direct=3 / weightb=1 / open_gop=0 / weightp=2 / keyint=250 / keyint_min=25 / scenecut=40 / intra_refresh=0 / rc_lookahead=50 / rc=abr / mbtree=1 / bitrate=1100 / ratetol=1.0 / qcomp=0.60 / qpmin=0 / qpmax=69 / qpstep=4 / ip_ratio=1.40 / aq=1:1.00
Encoded date : UTC 2020-08-05 07:54:12
Tagged date : UTC 2020-08-05 07:54:12
Codec configuration box : avcC

Audio
ID : 2
Format : AAC LC
Format/Info : Advanced Audio Codec Low Complexity
Codec ID : mp4a-40-2
Duration : 58 min 41 s
Duration_LastFrame : -11 ms
Bit rate mode : Constant
Bit rate : 256 kb/s
Channel(s) : 2 channels
Channel layout : L R
Sampling rate : 48.0 kHz
Frame rate : 46.875 FPS (1024 SPF)
Compression mode : Lossy
Stream size : 107 MiB (19%)
Title : One.Of.Us.S01E01.WEBRip.x264-ION10
Language : English
Default : Yes
Alternate group : 1
Encoded date : UTC 2020-08-05 07:54:12
Tagged date : UTC 2020-08-05 07:54:12

720p.x265-BvS

General
Unique ID : 327529062521153179581567181287332282181 (0xF667CD8BF22E62CC5E469144A3847F45)
Complete name : One.of.us.s01e01.720p.nf.web-dl.x265-BvS.mkv
Format : Matroska
Format version : Version 4
File size : 206 MiB
Duration : 58 min 41 s
Overall bit rate : 491 kb/s
Movie name : BvSRips
Encoded date : UTC 2020-08-05 23:19:05
Writing application : mkvmerge v46.0.0 (‘No Deeper Escape’) 64-bit
Writing library : libebml v1.3.10 + libmatroska v1.5.2

Video
ID : 1
Format : HEVC
Format/Info : High Efficiency Video Coding
Format profile : [email protected]@Main
Codec ID : V_MPEGH/ISO/HEVC
Duration : 58 min 41 s
Bit rate : 361 kb/s
Width : 1 280 pixels
Height : 720 pixels
Display aspect ratio : 16:9
Frame rate mode : Constant
Frame rate : 25.000 FPS
Color space : YUV
Chroma subsampling : 4:2:0
Bit depth : 8 bits
Bits/(Pixel*Frame) : 0.016
Stream size : 151 MiB (74%)
Writing library : x265 1.5:[Windows][GCC 4.7.0][32 bit] Encoding settings : wpp / ctu=64 / tu-intra-depth=1 / tu-inter-depth=1 / me=1 / subme=2 / merange=57 / no-rect / no-amp / max-merge=2 / temporal-mvp / early-skip / no-fast-cbf / rdpenalty=0 / no-tskip / no-tskip-fast / strong-intra-smoothing / no-lossless / no-cu-lossless / no-constrained-intra / fast-intra / open-gop / interlace=0 / keyint=250 / min-keyint=25 / scenecut=40 / rc-lookahead=15 / bframes=4 / bframe-bias=0 / b-adapt=0 / ref=1 / weightp / no-weightb / aq-mode=0 / aq-strength=0.00 / cbqpoffs=0 / crqpoffs=0 / rd=2 / psy-rd=0.00 / psy-rdoq=0.00 / signhide / lft / sao / no-sao-non-deblock / b-pyramid / no-cutree / rc=crf / crf=25.0 / qcomp=0.60 / qpmin=0 / qpmax=51 / qpstep=4 / ipratio=1.40 / pbratio=1.30
Default : Yes
Forced : No
Color range : Limited
Color primaries : BT.709
Transfer characteristics : BT.709
Matrix coefficients : BT.709

Audio
ID : 2
Format : AAC LC SBR
Format/Info : Advanced Audio Codec Low Complexity with Spectral Band Replication
Commercial name : HE-AAC
Format settings : NBC
Codec ID : A_AAC-5
Duration : 58 min 41 s
Bit rate : 128 kb/s
Channel(s) : 2 channels
Channel layout : L R
Sampling rate : 44.1 kHz
Frame rate : 21.533 FPS (2048 SPF)
Compression mode : Lossy
Stream size : 53.7 MiB (26%)
Language : English
Default : Yes
Forced : No

Text
ID : 3
Format : ASS
Codec ID : S_TEXT/ASS
Codec ID/Info : Advanced Sub Station Alpha
Duration : 4 s 500 ms
Bit rate : 149 b/s
Count of elements : 1
Compression mode : Lossless
Stream size : 84.0 Bytes (0%)
Default : Yes
Forced : No

1080p.x265-BvS

 

3 Responses

  1. Majid says:

    Hi, it is password protected.

  2. qazequ says:

    free version links requires a password

  3. Majid says:

    Hi, will this be available without password?

Leave a Reply

Your email address will not be published. Required fields are marked *