One Flew Over the Cuckoo’s Nest 1975 1080p Bluray x265 HEVC 10bit AAC 5.1 Tigole [G.DRIVE]

One-Flew-Over-the-Cuckoo's-Nest

The story of the Apache chief and his armed resistance to the U.S. Government’s subjugation of his people.

Links: iMDB Trailer

One Flew Over the Cuckoo’s Nest 1975 1080p Bluray x265 HEVC 10bit AAC 5.1 Tigole
MKV-HEVC | 1920×1080 | English | Subs.ENG/FRE/GER/SPA | AAC 5.1 | 4.22GB

This content is reserved for registered users. Sign up here o login to be able to see it.

MEGA – 1FICHIER

NFO

General
Unique ID : 216598736698413042236815350330480190389 (0xA2F3663806B54164B052C6A46334E3B5)
Complete name : One Flew Over the Cuckoo’s Nest 1975 (1080p x265 10bit Tigole).mkv
Format : Matroska
Format version : Version 4
File size : 4.22 GiB
Duration : 2 h 13 min
Overall bit rate : 4 521 kb/s
Movie name : One Flew Over the Cuckoo’s Nest
Encoded date : UTC 2017-10-09 06:23:05
Writing application : mkvmerge v14.0.0 (‘Flow’) 64bit
Writing library : libebml v1.3.4 + libmatroska v1.4.5

Video
ID : 1
Format : HEVC
Format/Info : High Efficiency Video Coding
Format profile : Main [email protected]@Main
Codec ID : V_MPEGH/ISO/HEVC
Duration : 2 h 13 min
Bit rate : 3 999 kb/s
Width : 1 920 pixels
Height : 1 080 pixels
Display aspect ratio : 16:9
Frame rate mode : Constant
Frame rate : 23.976 (24000/1001) FPS
Color space : YUV
Chroma subsampling : 4:2:0
Bit depth : 10 bits
Bits/(Pixel*Frame) : 0.080
Stream size : 3.74 GiB (88%)
Writing library : x265 2.5+22-8db95a1da9f8:[Windows][GCC 7.1.0][64 bit] 10bit
Encoding settings : cpuid=1173503 / frame-threads=3 / numa-pools=8 / wpp / no-pmode / no-pme / no-psnr / no-ssim / log-level=2 / input-csp=1 / input-res=1920×1080 / interlace=0 / total-frames=192342 / level-idc=0 / high-tier=1 / uhd-bd=0 / ref=4 / no-allow-non-conformance / no-repeat-headers / annexb / no-aud / no-hrd / info / hash=0 / no-temporal-layers / open-gop / min-keyint=23 / keyint=250 / bframes=4 / b-adapt=2 / b-pyramid / bframe-bias=0 / rc-lookahead=25 / lookahead-slices=4 / scenecut=40 / no-intra-refresh / ctu=64 / min-cu-size=8 / rect / no-amp / max-tu-size=32 / tu-inter-depth=1 / tu-intra-depth=1 / limit-tu=0 / rdoq-level=2 / dynamic-rd=0.00 / no-ssim-rd / signhide / no-tskip / nr-intra=0 / nr-inter=0 / no-constrained-intra / strong-intra-smoothing / max-merge=3 / limit-refs=3 / limit-modes / me=3 / subme=3 / merange=57 / temporal-mvp / weightp / no-weightb / no-analyze-src-pics / deblock=0:0 / sao / no-sao-non-deblock / rd=4 / no-early-skip / rskip / no-fast-intra / no-tskip-fast / no-cu-lossless / no-b-intra / no-splitrd-skip / rdpenalty=0 / psy-rd=2.00 / psy-rdoq=1.00 / no-rd-refine / analysis-reuse-mode=0 / no-lossless / cbqpoffs=0 / crqpoffs=0 / rc=abr / bitrate=4000 / qcomp=0.60 / qpstep=4 / stats-write=0 / stats-read=2 / cplxblur=20.0 / qblur=0.5 / ipratio=1.40 / pbratio=1.30 / aq-mode=2 / aq-strength=1.00 / cutree / zone-count=0 / no-strict-cbr / qg-size=32 / no-rc-grain / qpmax=69 / qpmin=0 / no-const-vbv / sar=0 / overscan=0 / videoformat=5 / range=0 / colorprim=2 / transfer=2 / colormatrix=2 / chromaloc=0 / display-window=0 / max-cll=0,0 / min-luma=0 / max-luma=1023 / log2-max-poc-lsb=8 / vui-timing-info / vui-hrd-info / slices=1 / opt-qp-pps / opt-ref-list-length-pps / multi-pass-opt-rps / scenecut-bias=0.05 / no-opt-cu-delta-qp / no-aq-motion / no-hdr / no-hdr-opt / no-dhdr10-opt / analysis-reuse-level=5 / scale-factor=0 / refine-intra=0 / refine-inter=0 / refine-mv=0 / no-limit-sao / ctu-info=0
Default : Yes
Forced : No

Audio #1
ID : 2
Format : AAC LC
Format/Info : Advanced Audio Codec Low Complexity
Codec ID : A_AAC-2
Duration : 2 h 13 min
Bit rate : 334 kb/s
Channel(s) : 6 channels
Channel layout : C L R Ls Rs LFE
Sampling rate : 48.0 kHz
Frame rate : 46.875 FPS (1024 SPF)
Compression mode : Lossy
Delay relative to video : 20 ms
Stream size : 319 MiB (7%)
Language : English
Default : Yes
Forced : No

Audio #2
ID : 3
Format : AAC LC SBR
Format/Info : Advanced Audio Codec Low Complexity with Spectral Band Replication
Commercial name : HE-AAC
Format settings : Explicit
Codec ID : A_AAC-2
Duration : 2 h 13 min
Bit rate : 42.8 kb/s
Channel(s) : 1 channel
Channel layout : C
Sampling rate : 48.0 kHz
Frame rate : 23.438 FPS (2048 SPF)
Compression mode : Lossy
Delay relative to video : 40 ms
Stream size : 41.0 MiB (1%)
Title : Commentary
Language : English
Default : No
Forced : No

Text #1
ID : 4
Format : VobSub
Muxing mode : zlib
Codec ID : S_VOBSUB
Codec ID/Info : Picture based subtitle format used on DVDs
Duration : 2 h 12 min
Bit rate : 11.5 kb/s
Count of elements : 1772
Stream size : 10.8 MiB (0%)
Language : English
Default : No
Forced : No

Text #2
ID : 5
Format : VobSub
Muxing mode : zlib
Codec ID : S_VOBSUB
Codec ID/Info : Picture based subtitle format used on DVDs
Duration : 2 h 13 min
Bit rate : 3 965 b/s
Count of elements : 1194
Stream size : 3.77 MiB (0%)
Language : Arabic
Default : No
Forced : No

Text #3
ID : 6
Format : VobSub
Muxing mode : zlib
Codec ID : S_VOBSUB
Codec ID/Info : Picture based subtitle format used on DVDs
Duration : 2 h 13 min
Bit rate : 8 118 b/s
Count of elements : 1643
Stream size : 7.73 MiB (0%)
Language : Bulgarian
Default : No
Forced : No

Text #4
ID : 7
Format : VobSub
Muxing mode : zlib
Codec ID : S_VOBSUB
Codec ID/Info : Picture based subtitle format used on DVDs
Duration : 2 h 13 min
Bit rate : 7 723 b/s
Count of elements : 1567
Stream size : 7.35 MiB (0%)
Language : Chinese
Default : No
Forced : No

Text #5
ID : 8
Format : VobSub
Muxing mode : zlib
Codec ID : S_VOBSUB
Codec ID/Info : Picture based subtitle format used on DVDs
Duration : 2 h 13 min
Bit rate : 13.2 kb/s
Count of elements : 2046
Stream size : 12.6 MiB (0%)
Title : Commentary
Language : Chinese
Default : No
Forced : No

Text #6
ID : 9
Format : VobSub
Muxing mode : zlib
Codec ID : S_VOBSUB
Codec ID/Info : Picture based subtitle format used on DVDs
Duration : 2 h 13 min
Bit rate : 8 340 b/s
Count of elements : 1641
Stream size : 7.94 MiB (0%)
Language : Croatian
Default : No
Forced : No

Text #7
ID : 10
Format : VobSub
Muxing mode : zlib
Codec ID : S_VOBSUB
Codec ID/Info : Picture based subtitle format used on DVDs
Duration : 2 h 13 min
Bit rate : 7 268 b/s
Count of elements : 1624
Stream size : 6.92 MiB (0%)
Language : Czech
Default : No
Forced : No

Text #8
ID : 11
Format : VobSub
Muxing mode : zlib
Codec ID : S_VOBSUB
Codec ID/Info : Picture based subtitle format used on DVDs
Duration : 2 h 13 min
Bit rate : 7 343 b/s
Count of elements : 1621
Stream size : 6.99 MiB (0%)
Language : Danish
Default : No
Forced : No

Text #9
ID : 12
Format : VobSub
Muxing mode : zlib
Codec ID : S_VOBSUB
Codec ID/Info : Picture based subtitle format used on DVDs
Duration : 2 h 11 min
Bit rate : 8 559 b/s
Count of elements : 1465
Stream size : 8.04 MiB (0%)
Language : Dutch
Default : No
Forced : No

Text #10
ID : 13
Format : VobSub
Muxing mode : zlib
Codec ID : S_VOBSUB
Codec ID/Info : Picture based subtitle format used on DVDs
Duration : 2 h 13 min
Bit rate : 6 478 b/s
Count of elements : 968
Stream size : 6.16 MiB (0%)
Language : Estonian
Default : No
Forced : No

Text #11
ID : 14
Format : VobSub
Muxing mode : zlib
Codec ID : S_VOBSUB
Codec ID/Info : Picture based subtitle format used on DVDs
Duration : 2 h 13 min
Bit rate : 7 162 b/s
Count of elements : 1505
Stream size : 6.82 MiB (0%)
Language : Finnish
Default : No
Forced : No

Text #12
ID : 15
Format : VobSub
Muxing mode : zlib
Codec ID : S_VOBSUB
Codec ID/Info : Picture based subtitle format used on DVDs
Duration : 2 h 13 min
Bit rate : 6 253 b/s
Count of elements : 1357
Stream size : 5.95 MiB (0%)
Language : French
Default : No
Forced : No

Text #13
ID : 16
Format : VobSub
Muxing mode : zlib
Codec ID : S_VOBSUB
Codec ID/Info : Picture based subtitle format used on DVDs
Duration : 2 h 12 min
Bit rate : 10.7 kb/s
Count of elements : 1751
Stream size : 10.1 MiB (0%)
Language : German
Default : No
Forced : No

Text #14
ID : 17
Format : VobSub
Muxing mode : zlib
Codec ID : S_VOBSUB
Codec ID/Info : Picture based subtitle format used on DVDs
Duration : 2 h 13 min
Bit rate : 8 638 b/s
Count of elements : 1642
Stream size : 8.22 MiB (0%)
Language : Greek
Default : No
Forced : No

Text #15
ID : 18
Format : VobSub
Muxing mode : zlib
Codec ID : S_VOBSUB
Codec ID/Info : Picture based subtitle format used on DVDs
Duration : 2 h 13 min
Bit rate : 5 549 b/s
Count of elements : 1198
Stream size : 5.28 MiB (0%)
Language : Hebrew
Default : No
Forced : No

Text #16
ID : 19
Format : VobSub
Muxing mode : zlib
Codec ID : S_VOBSUB
Codec ID/Info : Picture based subtitle format used on DVDs
Duration : 2 h 13 min
Bit rate : 9 087 b/s
Count of elements : 1642
Stream size : 8.65 MiB (0%)
Language : Hungarian
Default : No
Forced : No

Text #17
ID : 20
Format : VobSub
Muxing mode : zlib
Codec ID : S_VOBSUB
Codec ID/Info : Picture based subtitle format used on DVDs
Duration : 2 h 13 min
Bit rate : 10.0 kb/s
Count of elements : 1672
Stream size : 9.59 MiB (0%)
Language : Italian
Default : No
Forced : No

Text #18
ID : 21
Format : VobSub
Muxing mode : zlib
Codec ID : S_VOBSUB
Codec ID/Info : Picture based subtitle format used on DVDs
Duration : 2 h 13 min
Bit rate : 6 908 b/s
Count of elements : 1560
Stream size : 6.57 MiB (0%)
Language : Korean
Default : No
Forced : No

Text #19
ID : 22
Format : VobSub
Muxing mode : zlib
Codec ID : S_VOBSUB
Codec ID/Info : Picture based subtitle format used on DVDs
Duration : 2 h 13 min
Bit rate : 7 303 b/s
Count of elements : 1586
Stream size : 6.95 MiB (0%)
Language : Norwegian Bokmal
Default : No
Forced : No

Text #20
ID : 23
Format : VobSub
Muxing mode : zlib
Codec ID : S_VOBSUB
Codec ID/Info : Picture based subtitle format used on DVDs
Duration : 2 h 11 min
Bit rate : 7 742 b/s
Count of elements : 1638
Stream size : 7.28 MiB (0%)
Language : Polish
Default : No
Forced : No

Text #21
ID : 24
Format : VobSub
Muxing mode : zlib
Codec ID : S_VOBSUB
Codec ID/Info : Picture based subtitle format used on DVDs
Duration : 2 h 13 min
Bit rate : 8 212 b/s
Count of elements : 1643
Stream size : 7.82 MiB (0%)
Language : Portuguese
Default : No
Forced : No

Text #22
ID : 25
Format : VobSub
Muxing mode : zlib
Codec ID : S_VOBSUB
Codec ID/Info : Picture based subtitle format used on DVDs
Duration : 2 h 11 min
Bit rate : 7 578 b/s
Count of elements : 1638
Stream size : 7.12 MiB (0%)
Language : Romanian
Default : No
Forced : No

Text #23
ID : 26
Format : VobSub
Muxing mode : zlib
Codec ID : S_VOBSUB
Codec ID/Info : Picture based subtitle format used on DVDs
Duration : 2 h 13 min
Bit rate : 8 697 b/s
Count of elements : 1722
Stream size : 8.28 MiB (0%)
Language : Russian
Default : No
Forced : No

Text #24
ID : 27
Format : VobSub
Muxing mode : zlib
Codec ID : S_VOBSUB
Codec ID/Info : Picture based subtitle format used on DVDs
Duration : 2 h 13 min
Bit rate : 8 024 b/s
Count of elements : 1561
Stream size : 7.64 MiB (0%)
Language : Slovenian
Default : No
Forced : No

Text #25
ID : 28
Format : VobSub
Muxing mode : zlib
Codec ID : S_VOBSUB
Codec ID/Info : Picture based subtitle format used on DVDs
Duration : 2 h 13 min
Bit rate : 8 373 b/s
Count of elements : 1591
Stream size : 7.97 MiB (0%)
Language : Spanish
Default : No
Forced : No

Text #26
ID : 29
Format : VobSub
Muxing mode : zlib
Codec ID : S_VOBSUB
Codec ID/Info : Picture based subtitle format used on DVDs
Duration : 2 h 13 min
Bit rate : 6 677 b/s
Count of elements : 1510
Stream size : 6.35 MiB (0%)
Language : Swedish
Default : No
Forced : No

Text #27
ID : 30
Format : VobSub
Muxing mode : zlib
Codec ID : S_VOBSUB
Codec ID/Info : Picture based subtitle format used on DVDs
Duration : 2 h 13 min
Bit rate : 8 337 b/s
Count of elements : 1561
Stream size : 7.93 MiB (0%)
Language : Thai
Default : No
Forced : No

Text #28
ID : 31
Format : VobSub
Muxing mode : zlib
Codec ID : S_VOBSUB
Codec ID/Info : Picture based subtitle format used on DVDs
Duration : 2 h 13 min
Bit rate : 9 323 b/s
Count of elements : 1625
Stream size : 8.87 MiB (0%)
Language : Turkish
Default : No
Forced : No

Menu
00:00:00.000 : en:Chapter 01
00:04:08.665 : en:Chapter 02
00:08:29.008 : en:Chapter 03
00:13:53.833 : en:Chapter 04
00:21:06.974 : en:Chapter 05
00:25:02.083 : en:Chapter 06
00:27:23.892 : en:Chapter 07
00:31:23.214 : en:Chapter 08
00:34:11.924 : en:Chapter 09
00:39:15.269 : en:Chapter 10
00:47:18.961 : en:Chapter 11
00:48:49.343 : en:Chapter 12
00:51:25.749 : en:Chapter 13
00:54:58.670 : en:Chapter 14
01:02:05.388 : en:Chapter 15
01:05:27.590 : en:Chapter 16
01:06:56.470 : en:Chapter 17
01:09:28.873 : en:Chapter 18
01:10:46.450 : en:Chapter 19
01:19:20.297 : en:Chapter 20
01:26:50.038 : en:Chapter 21
01:29:34.160 : en:Chapter 22
01:36:53.098 : en:Chapter 23
01:37:50.447 : en:Chapter 24
01:41:24.286 : en:Chapter 25
01:44:27.552 : en:Chapter 26
01:50:39.466 : en:Chapter 27
01:53:15.747 : en:Chapter 28
01:59:02.260 : en:Chapter 29
02:02:11.282 : en:Chapter 30
02:04:12.695 : en:Chapter 31
02:09:04.445 : en:Chapter 32
02:11:25.752 : en:Chapter 33

 

We choose a different approach. Will you support it? I am BvSRips, I make my own rips of movies and series in 1080p x265 in reduced size for those users who do not have a high speed internet. We believe that everyone should be able to enjoy TV or movie entertainment, but what if it can't be seen in my country? What if you don't have subtitles? Do I have to pay $ 10 or $ 15 on each streaming platform? That is why this website was born by sharing files on free servers (mega and 1fichier). We do not place advertising or popups because they are intrusive for the user, we want you to enjoy this website. But also the website and the tools used consume an expense that we assume and that now you can support us.You can become a VIP member and download without limit, read more here. I hope I can count on your help.

You may also like...

Leave a Reply

Your email address will not be published. Required fields are marked *