You Only Live Twice (1967) | 720p & 1080p & 2160p BluRay x265-BvS

Secret Agent James Bond and the Japanese Secret Service must find and stop the true culprit of a series of space hijackings, before war is provoked between Russia and the United States.

Links: IMDB  – Trailer

Note: In English with English/French/German Selectable Subtitles

DOWNLOAD

VIP

This content is reserved for registered users. Sign up here o login to be able to see it. Buy your VIP membership

FREE

  • You.Only.Live.Twice.1967.2160p.WEB-DL.DTS-HD.MA.5.1.HEVC-AjA – 20.30GB (ONLY VIP)

NFO

You.Only.Live.Twice.1967.2160p.WEB-DL.DTS-HD.MA.5.1.HEVC-AjA

General
Unique ID : 262939438860973261064277215644391511628 (0xC5D04B3C21793B441CC12C6E8943164C)
Complete name : You.Only.Live.Twice.1967.2160p.WEB-DL.DTS-HD.MA.5.1.HEVC-AjA.mkv
Format : Matroska
Format version : Version 4
File size : 20.3 GiB
Duration : 1 h 57 min
Overall bit rate mode : Variable
Overall bit rate : 24.9 Mb/s
Movie name : You Only Live Twice (1967)
Encoded date : UTC 2022-05-05 22:31:27
Writing application : mkvmerge v66.0.0 (‘Josie’) 64-bit
Writing library : libebml v1.4.2 + libmatroska v1.6.4

Video
ID : 1
Format : HEVC
Format/Info : High Efficiency Video Coding
Format profile : Main [email protected]@High
Codec ID : V_MPEGH/ISO/HEVC
Duration : 1 h 57 min
Bit rate : 20.6 Mb/s
Width : 3 840 pixels
Height : 1 634 pixels
Display aspect ratio : 2.35:1
Frame rate mode : Constant
Frame rate : 23.976 (23976/1000) FPS
Color space : YUV
Chroma subsampling : 4:2:0
Bit depth : 10 bits
Bits/(Pixel*Frame) : 0.137
Stream size : 16.9 GiB (83%)
Default : Yes
Forced : No
Color range : Limited
Color primaries : BT.709
Transfer characteristics : BT.709
Matrix coefficients : BT.709

Audio #1
ID : 2
Format : DTS XLL
Format/Info : Digital Theater Systems
Commercial name : DTS-HD Master Audio
Codec ID : A_DTS
Duration : 1 h 56 min
Bit rate mode : Variable
Bit rate : 3 861 kb/s
Channel(s) : 6 channels
Channel layout : C L R Ls Rs LFE
Sampling rate : 48.0 kHz
Frame rate : 93.750 FPS (512 SPF)
Bit depth : 24 bits
Compression mode : Lossless
Delay relative to video : 5 s 331 ms
Stream size : 3.15 GiB (16%)
Language : English
Default : Yes
Forced : No

Audio #2
ID : 3
Format : AC-3
Format/Info : Audio Coding 3
Commercial name : Dolby Digital
Codec ID : A_AC3
Duration : 1 h 56 min
Bit rate mode : Constant
Bit rate : 384 kb/s
Channel(s) : 6 channels
Channel layout : L R C LFE Ls Rs
Sampling rate : 48.0 kHz
Frame rate : 31.250 FPS (1536 SPF)
Compression mode : Lossy
Stream size : 321 MiB (2%)
Title : British
Language : English
Service kind : Complete Main
Default : Yes
Forced : No

Text #1
ID : 4
Format : UTF-8
Codec ID : S_TEXT/UTF8
Codec ID/Info : UTF-8 Plain Text
Duration : 1 h 54 min
Bit rate : 34 b/s
Count of elements : 859
Stream size : 28.9 KiB (0%)
Language : English
Default : No
Forced : No

Text #2
ID : 5
Format : UTF-8
Codec ID : S_TEXT/UTF8
Codec ID/Info : UTF-8 Plain Text
Duration : 1 h 54 min
Bit rate : 38 b/s
Count of elements : 840
Stream size : 32.5 KiB (0%)
Title : Latin American
Language : Spanish
Default : No
Forced : No

Text #3
ID : 6
Format : UTF-8
Codec ID : S_TEXT/UTF8
Codec ID/Info : UTF-8 Plain Text
Duration : 1 h 54 min
Bit rate : 25 b/s
Count of elements : 844
Stream size : 21.7 KiB (0%)
Language : French
Default : No
Forced : No

Text #4
ID : 7
Format : UTF-8
Codec ID : S_TEXT/UTF8
Codec ID/Info : UTF-8 Plain Text
Duration : 1 h 54 min
Bit rate : 33 b/s
Count of elements : 836
Stream size : 28.0 KiB (0%)
Title : Brazilian
Language : Portuguese
Default : No
Forced : No

Menu
00:00:05.331 : :The Friendly Ports
00:05:07.424 : :Dead on the Job
00:06:15.867 : :Captive Cosmonauts
00:08:59.406 : :Snapshot
00:11:54.706 : :Funeral at Sea
00:15:28.419 : :For England…
00:19:31.245 : :Little Nelly
00:24:24.246 : :Main Titles
00:28:24.987 : :Carry-on Criminals
00:31:34.051 : :Hendersons’s Back
00:33:14.443 : :Japanese Customs
00:36:19.920 : :The Next Wave
00:40:53.401 : :Tanaka Loves Bond
00:44:23.152 : :Sumo Pick-Up
00:47:05.148 : :Spicy Dealings
00:51:19.110 : :Park-and-Fly
00:54:42.605 : :A Hot Reception
00:59:04.032 : :Moscow, We Have a Problem
01:03:33.176 : :The Strictest Orders
01:09:07.302 : :Ninja Academy
01:12:32.048 : :James Bond-San
01:14:12.398 : :Sweet Taste of Death
01:17:38.980 : :Mrs. Bond
01:20:31.235 : :Strictly Business
01:24:31.016 : :”Honeymoon’s Over”
01:28:48.065 : :A Fly on the Wall
01:34:59.978 : :The Price of Failure
01:35:55.325 : :Imminent Destruction
01:38:18.509 : :End Credits
01:44:31.632 : :Pure Guesswork
01:48:24.865 : :Opening Sequence
01:53:30.838 : :”Stop That Astronaut”

 

(He/Him) He's BvSRips. I dedicate myself to sharing files on this blog for free. But it is difficult to maintain the links online for a long time, they are denounced and deleted, reuploading costs more work, that is why a section for VIP users was created, where they can download all the files published 100% in MEGA, as premium, without spend more. I would greatly appreciate your collaboration so that this blog remains online for a longer time.

BUY VIP HERE

Leave a Reply

Your email address will not be published. Required fields are marked *