Village of the Damned (1960) | 720p & 1080p & 2160p BluRay x265-BvS

Village of the Damned (1960)

The inhabitants of the British village of Midwich suddenly fall unconscious, as does anyone entering the village. The military establishes a cordon around Midwich and sends in a man wearing a gas mask, but he, too, falls unconscious and is pulled back with rope. The man awakens and reports experiencing a cold sensation just before passing out. The pilot of a military reconnaissance plane is contacted and asked to investigate. When he flies below 5,000 feet, he loses consciousness and the plane crashes. A five-mile exclusion zone around the village is established for all aircraft. After approximately four hours, the villagers regain consciousness, and all are apparently unaffected.

Links: IMDB Trailer

Note: In English with English Selectable Subtitles

DOWNLOAD

VIP

This content is reserved for registered users. Sign up here o login to be able to see it. Buy your VIP membership

FREE

  • Village of the Damned (1960) (1080p BluRay x265 10bit Tigole) – 3.85GB (ONLY VIP)

NFO

Children of the Damned (1964) (1080p BluRay x265 10bit Tigole)

General
Unique ID : 53289443779008628894665373741826384460 (0x28172C6DBB527CD2BDEC3C670427224C)
Complete name : Village of the Damned (1960) (1080p BluRay x265 10bit Tigole).mkv
Format : Matroska
Format version : Version 4
File size : 3.85 GiB
Duration : 1 h 17 min
Overall bit rate : 7 136 kb/s
Movie name : Village of the Damned (1960)
Encoded date : UTC 2021-12-02 16:14:35
Writing application : mkvmerge v55.0.0 (‘Waiting For Space’) 64-bit
Writing library : libebml v1.4.2 + libmatroska v1.6.4

Video
ID : 1
Format : HEVC
Format/Info : High Efficiency Video Coding
Format profile : Main [email protected]@Main
Codec ID : V_MPEGH/ISO/HEVC
Duration : 1 h 17 min
Bit rate : 7 000 kb/s
Width : 1 920 pixels
Height : 1 080 pixels
Display aspect ratio : 16:9
Frame rate mode : Constant
Frame rate : 23.976 (24000/1001) FPS
Color space : YUV
Chroma subsampling : 4:2:0
Bit depth : 10 bits
Bits/(Pixel*Frame) : 0.141
Stream size : 3.78 GiB (98%)
Writing library : x265M – 3.4+35-772bb4c84:[Windows][GCC 10.2.0][64 bit] 10bit
Encoding settings : cpuid=1111039 / frame-threads=3 / numa-pools=8 / wpp / no-pmode / no-pme / no-psnr / no-ssim / log-level=2 / input-csp=1 / input-res=1920×1080 / interlace=0 / total-frames=111240 / level-idc=0 / high-tier=1 / uhd-bd=0 / ref=4 / no-allow-non-conformance / no-repeat-headers / annexb / no-aud / no-hrd / info / hash=0 / no-temporal-layers / open-gop / min-keyint=23 / keyint=250 / gop-lookahead=0 / bframes=4 / b-adapt=2 / b-pyramid / bframe-bias=0 / rc-lookahead=25 / lookahead-slices=4 / scenecut=40 / hist-scenecut=0 / radl=0 / no-splice / no-intra-refresh / ctu=64 / min-cu-size=8 / rect / no-amp / max-tu-size=32 / tu-inter-depth=1 / tu-intra-depth=1 / limit-tu=0 / rdoq-level=2 / dynamic-rd=0.00 / no-ssim-rd / signhide / no-tskip / nr-intra=0 / nr-inter=0 / no-constrained-intra / strong-intra-smoothing / max-merge=3 / limit-refs=3 / limit-modes / me=3 / subme=3 / merange=57 / temporal-mvp / no-frame-dup / no-hme / weightp / no-weightb / no-analyze-src-pics / deblock=0:0 / no-sao / no-sao-non-deblock / rd=4 / selective-sao=0 / no-early-skip / rskip / no-fast-intra / no-tskip-fast / no-cu-lossless / no-b-intra / no-splitrd-skip / rdpenalty=0 / psy-rd=2.00 / psy-rdoq=1.00 / no-rd-refine / no-lossless / cbqpoffs=0 / crqpoffs=0 / rc=abr / bitrate=7000 / qcomp=0.60 / qpstep=4 / stats-write=0 / stats-read=2 / cplxblur=20.0 / qblur=0.5 / ipratio=1.40 / pbratio=1.30 / aq-mode=3 / aq-strength=1.00 / cutree / zone-count=0 / no-strict-cbr / qg-size=32 / no-rc-grain / qpmax=69 / qpmin=0 / no-const-vbv / sar=0 / overscan=0 / videoformat=5 / range=0 / colorprim=2 / transfer=2 / colormatrix=2 / chromaloc=0 / display-window=0 / cll=0,0 / min-luma=0 / max-luma=1023 / log2-max-poc-lsb=8 / vui-timing-info / vui-hrd-info / slices=1 / no-opt-qp-pps / no-opt-ref-list-length-pps / multi-pass-opt-rps / scenecut-bias=0.05 / hist-threshold=0.03 / no-opt-cu-delta-qp / aq-motion / no-hdr10 / no-hdr10-opt / no-dhdr10-opt / no-idr-recovery-sei / analysis-reuse-level=0 / analysis-save-reuse-level=0 / analysis-load-reuse-level=0 / scale-factor=0 / refine-intra=0 / refine-inter=0 / refine-mv=1 / refine-ctu-distortion=0 / no-limit-sao / ctu-info=0 / no-lowpass-dct / refine-analysis-type=0 / copy-pic=1 / max-ausize-factor=1.0 / no-dynamic-refine / no-single-sei / no-hevc-aq / no-svt / no-field / qp-adaptation-range=1.00 / scenecut-aware-qp=0conformance-window-offsets / right=0 / bottom=0 / decoder-max-rate=0 / no-vbv-live-multi-pass
Default : Yes
Forced : No

Audio #1
ID : 2
Format : AAC LC
Format/Info : Advanced Audio Codec Low Complexity
Codec ID : A_AAC-2
Duration : 1 h 17 min
Bit rate : 62.4 kb/s
Channel(s) : 2 channels
Channel layout : L R
Sampling rate : 48.0 kHz
Frame rate : 46.875 FPS (1024 SPF)
Compression mode : Lossy
Delay relative to video : 20 ms
Stream size : 34.5 MiB (1%)
Language : English
Default : Yes
Forced : No

Audio #2
ID : 3
Format : AAC LC SBR
Format/Info : Advanced Audio Codec Low Complexity with Spectral Band Replication
Commercial name : HE-AAC
Format settings : Explicit
Codec ID : A_AAC-2
Duration : 1 h 17 min
Bit rate : 64.2 kb/s
Channel(s) : 2 channels
Channel layout : L R
Sampling rate : 48.0 kHz
Frame rate : 23.438 FPS (2048 SPF)
Compression mode : Lossy
Delay relative to video : 40 ms
Stream size : 35.5 MiB (1%)
Title : Commentary
Language : English
Default : No
Forced : No

Text
ID : 4
Format : VobSub
Muxing mode : zlib
Codec ID : S_VOBSUB
Codec ID/Info : Picture based subtitle format used on DVDs
Duration : 1 h 16 min
Bit rate : 10.0 kb/s
Count of elements : 1166
Stream size : 5.51 MiB (0%)
Language : English
Default : No
Forced : No

Menu
00:00:00.000 : en:Chapter 01
00:03:51.231 : en:Chapter 02
00:05:02.385 : en:Chapter 03
00:08:13.493 : en:Chapter 04
00:13:25.971 : en:Chapter 05
00:16:40.874 : en:Chapter 06
00:20:18.342 : en:Chapter 07
00:23:30.242 : en:Chapter 08
00:28:02.931 : en:Chapter 09
00:31:34.559 : en:Chapter 10
00:33:29.340 : en:Chapter 11
00:39:36.749 : en:Chapter 12
00:42:48.023 : en:Chapter 13
00:49:18.330 : en:Chapter 14
00:50:16.722 : en:Chapter 15
00:55:14.185 : en:Chapter 16
00:57:55.763 : en:Chapter 17
01:00:43.097 : en:Chapter 18
01:03:43.736 : en:Chapter 19
01:06:17.890 : en:Chapter 20
01:09:02.555 : en:Chapter 21
01:13:28.278 : en:Chapter 22
01:16:14.278 : en:Chapter 23
01:17:18.425 : en:Chapter 24

Leave a Reply

Your email address will not be published. Required fields are marked *