Tomorrow Never Dies (1997) | 720p & 1080p & 2160p BluRay x265-BvS

Tomorrow Never Dies-1997

Agent James Bond 007 is on a mission which includes a media tycoon, his former lover and a Chinese agent. Elliot Carver wants to complete his global media empire, but in order for this to work., he must achieve broadcasting rights in China. Carver wants to to start up World War III by starting a confrontation over British and Chinese waters. Bond gains the helping of Wai Lin on his quest to stop him, but how will Bond feel when he meets up with his former lover, who is know Carver’s wife.

Links: iMDB | Trailer

Note: In English with English/German/French Selectable Subtitles

DOWNLOAD

VIP

This content is reserved for registered users. Sign up here o login to be able to see it. Buy your VIP membership

FREE

  • Tomorrow.Never.Dies.1997.2160p.HYBRID.WEB-DL.DTS-HD.MA.5.1.HEVC-AjA – 19.50GB (MEGA FOLDER VIP)

NFO

Tomorrow.Never.Dies.1997.2160p.HYBRID.WEB-DL.DTS-HD.MA.5.1.HEVC-AjA

General
Unique ID : 297064883028476456229845494975004181695 (0xDF7C9D889040AB87ACB2BFE801F484BF)
Complete name : Tomorrow.Never.Dies.1997.2160p.HYBRID.WEB-DL.DTS-HD.MA.5.1.HEVC-AjA.mkv
Format : Matroska
Format version : Version 4
File size : 19.6 GiB
Duration : 1 h 59 min
Overall bit rate mode : Variable
Overall bit rate : 23.5 Mb/s
Movie name : Tomorrow.Never.Dies.1997.BluRay.Remux.1080p.AVC.DTS-HD.MA.5.1-HiFi
Encoded date : UTC 2022-04-29 15:46:11
Writing application : mkvmerge v66.0.0 (‘Josie’) 64-bit
Writing library : libebml v1.4.2 + libmatroska v1.6.4

Video
ID : 1
Format : HEVC
Format/Info : High Efficiency Video Coding
Format profile : Main [email protected]@High
Codec ID : V_MPEGH/ISO/HEVC
Duration : 1 h 59 min
Bit rate : 20.6 Mb/s
Width : 3 840 pixels
Height : 1 634 pixels
Display aspect ratio : 2.35:1
Frame rate mode : Constant
Frame rate : 23.976 FPS
Color space : YUV
Chroma subsampling : 4:2:0
Bit depth : 10 bits
Bits/(Pixel*Frame) : 0.137
Stream size : 17.1 GiB (87%)
Default : Yes
Forced : No
Color range : Limited
Color primaries : BT.709
Transfer characteristics : BT.709
Matrix coefficients : BT.709

Audio #1
ID : 2
Format : DTS XLL
Format/Info : Digital Theater Systems
Commercial name : DTS-HD Master Audio
Codec ID : A_DTS
Duration : 1 h 59 min
Bit rate mode : Variable
Bit rate : 2 550 kb/s
Channel(s) : 6 channels
Channel layout : C L R Ls Rs LFE
Sampling rate : 48.0 kHz
Frame rate : 93.750 FPS (512 SPF)
Bit depth : 24 bits
Compression mode : Lossless
Delay relative to video : 4 ms
Stream size : 2.13 GiB (11%)
Title : DTS Master Audio, English, 5.1 channels, 24 bits, 48kHz @ 2549 kbps
Language : English
Default : Yes
Forced : No

Audio #2
ID : 3
Format : AC-3
Format/Info : Audio Coding 3
Commercial name : Dolby Digital
Codec ID : A_AC3
Duration : 1 h 59 min
Bit rate mode : Constant
Bit rate : 384 kb/s
Channel(s) : 6 channels
Channel layout : L R C LFE Ls Rs
Sampling rate : 48.0 kHz
Frame rate : 31.250 FPS (1536 SPF)
Compression mode : Lossy
Stream size : 328 MiB (2%)
Title : British
Language : English
Service kind : Complete Main
Default : Yes
Forced : No

Text #1
ID : 4
Format : UTF-8
Codec ID : S_TEXT/UTF8
Codec ID/Info : UTF-8 Plain Text
Duration : 1 h 57 min
Bit rate : 46 b/s
Count of elements : 936
Stream size : 40.5 KiB (0%)
Title : English
Language : English
Default : No
Forced : No

Text #2
ID : 5
Format : UTF-8
Codec ID : S_TEXT/UTF8
Codec ID/Info : UTF-8 Plain Text
Duration : 1 h 54 min
Bit rate : 68 b/s
Count of elements : 864
Stream size : 57.5 KiB (0%)
Title : Bulgarian
Language : Bulgarian
Default : No
Forced : No

Text #3
ID : 6
Format : UTF-8
Codec ID : S_TEXT/UTF8
Codec ID/Info : UTF-8 Plain Text
Duration : 1 h 54 min
Bit rate : 37 b/s
Count of elements : 1060
Stream size : 31.9 KiB (0%)
Title : Chinese Mandarin Chinese Traditional
Language : Chinese
Default : No
Forced : No

Text #4
ID : 7
Format : UTF-8
Codec ID : S_TEXT/UTF8
Codec ID/Info : UTF-8 Plain Text
Duration : 1 h 54 min
Bit rate : 41 b/s
Count of elements : 825
Stream size : 34.5 KiB (0%)
Title : Czech
Language : Czech
Default : No
Forced : No

Text #5
ID : 8
Format : UTF-8
Codec ID : S_TEXT/UTF8
Codec ID/Info : UTF-8 Plain Text
Duration : 1 h 54 min
Bit rate : 43 b/s
Count of elements : 818
Stream size : 36.6 KiB (0%)
Title : Danish
Language : Danish
Default : No
Forced : No

Text #6
ID : 9
Format : UTF-8
Codec ID : S_TEXT/UTF8
Codec ID/Info : UTF-8 Plain Text
Duration : 1 h 58 min
Bit rate : 48 b/s
Count of elements : 902
Stream size : 42.1 KiB (0%)
Title : German
Language : German
Default : No
Forced : No

Text #7
ID : 10
Format : UTF-8
Codec ID : S_TEXT/UTF8
Codec ID/Info : UTF-8 Plain Text
Duration : 1 h 54 min
Bit rate : 74 b/s
Count of elements : 827
Stream size : 62.5 KiB (0%)
Title : Greek
Language : Greek
Default : No
Forced : No

Text #8
ID : 11
Format : UTF-8
Codec ID : S_TEXT/UTF8
Codec ID/Info : UTF-8 Plain Text
Duration : 1 h 58 min
Bit rate : 47 b/s
Count of elements : 900
Stream size : 41.2 KiB (0%)
Title : Spanish European
Language : Spanish
Default : No
Forced : No

Text #9
ID : 12
Format : UTF-8
Codec ID : S_TEXT/UTF8
Codec ID/Info : UTF-8 Plain Text
Duration : 1 h 58 min
Bit rate : 46 b/s
Count of elements : 898
Stream size : 40.2 KiB (0%)
Title : Finnish
Language : Finnish
Default : No
Forced : No

Text #10
ID : 13
Format : UTF-8
Codec ID : S_TEXT/UTF8
Codec ID/Info : UTF-8 Plain Text
Duration : 1 h 58 min
Bit rate : 42 b/s
Count of elements : 888
Stream size : 36.6 KiB (0%)
Title : French European
Language : French
Default : No
Forced : No

Text #11
ID : 14
Format : UTF-8
Codec ID : S_TEXT/UTF8
Codec ID/Info : UTF-8 Plain Text
Duration : 1 h 54 min
Bit rate : 62 b/s
Count of elements : 833
Stream size : 52.6 KiB (0%)
Title : Hebrew
Language : Hebrew
Default : No
Forced : No

Text #12
ID : 15
Format : UTF-8
Codec ID : S_TEXT/UTF8
Codec ID/Info : UTF-8 Plain Text
Duration : 1 h 54 min
Bit rate : 43 b/s
Count of elements : 922
Stream size : 36.5 KiB (0%)
Title : Croatian
Language : Croatian
Default : No
Forced : No

Text #13
ID : 16
Format : UTF-8
Codec ID : S_TEXT/UTF8
Codec ID/Info : UTF-8 Plain Text
Duration : 1 h 54 min
Bit rate : 39 b/s
Count of elements : 822
Stream size : 33.5 KiB (0%)
Title : Hungarian
Language : Hungarian
Default : No
Forced : No

Text #14
ID : 17
Format : UTF-8
Codec ID : S_TEXT/UTF8
Codec ID/Info : UTF-8 Plain Text
Duration : 1 h 58 min
Bit rate : 48 b/s
Count of elements : 1061
Stream size : 41.8 KiB (0%)
Title : Indonesian
Language : Indonesian
Default : No
Forced : No

Text #15
ID : 18
Format : UTF-8
Codec ID : S_TEXT/UTF8
Codec ID/Info : UTF-8 Plain Text
Duration : 1 h 54 min
Bit rate : 45 b/s
Count of elements : 826
Stream size : 38.4 KiB (0%)
Title : Icelandic
Language : Icelandic
Default : No
Forced : No

Text #16
ID : 19
Format : UTF-8
Codec ID : S_TEXT/UTF8
Codec ID/Info : UTF-8 Plain Text
Duration : 1 h 58 min
Bit rate : 45 b/s
Count of elements : 899
Stream size : 39.3 KiB (0%)
Title : Italian
Language : Italian
Default : No
Forced : No

Text #17
ID : 20
Format : UTF-8
Codec ID : S_TEXT/UTF8
Codec ID/Info : UTF-8 Plain Text
Duration : 1 h 58 min
Bit rate : 35 b/s
Count of elements : 1013
Stream size : 30.6 KiB (0%)
Title : Japanese
Language : Japanese
Default : No
Forced : No

Text #18
ID : 21
Format : UTF-8
Codec ID : S_TEXT/UTF8
Codec ID/Info : UTF-8 Plain Text
Duration : 1 h 58 min
Bit rate : 38 b/s
Count of elements : 1067
Stream size : 33.7 KiB (0%)
Title : Korean
Language : Korean
Default : No
Forced : No

Text #19
ID : 22
Format : UTF-8
Codec ID : S_TEXT/UTF8
Codec ID/Info : UTF-8 Plain Text
Duration : 1 h 58 min
Bit rate : 42 b/s
Count of elements : 891
Stream size : 37.3 KiB (0%)
Title : Dutch
Language : Dutch
Default : No
Forced : No

Text #20
ID : 23
Format : UTF-8
Codec ID : S_TEXT/UTF8
Codec ID/Info : UTF-8 Plain Text
Duration : 1 h 54 min
Bit rate : 43 b/s
Count of elements : 829
Stream size : 36.5 KiB (0%)
Title : Norwegian
Language : Norwegian
Default : No
Forced : No

Text #21
ID : 24
Format : UTF-8
Codec ID : S_TEXT/UTF8
Codec ID/Info : UTF-8 Plain Text
Duration : 1 h 54 min
Bit rate : 44 b/s
Count of elements : 826
Stream size : 37.8 KiB (0%)
Title : Polish
Language : Polish
Default : No
Forced : No

Text #22
ID : 25
Format : UTF-8
Codec ID : S_TEXT/UTF8
Codec ID/Info : UTF-8 Plain Text
Duration : 1 h 54 min
Bit rate : 42 b/s
Count of elements : 824
Stream size : 35.7 KiB (0%)
Title : Portuguese European
Language : Portuguese
Default : No
Forced : No

Text #23
ID : 26
Format : UTF-8
Codec ID : S_TEXT/UTF8
Codec ID/Info : UTF-8 Plain Text
Duration : 1 h 54 min
Bit rate : 46 b/s
Count of elements : 827
Stream size : 39.2 KiB (0%)
Title : Romanian
Language : Romanian
Default : No
Forced : No

Text #24
ID : 27
Format : UTF-8
Codec ID : S_TEXT/UTF8
Codec ID/Info : UTF-8 Plain Text
Duration : 1 h 58 min
Bit rate : 81 b/s
Count of elements : 966
Stream size : 70.6 KiB (0%)
Title : Russian
Language : Russian
Default : No
Forced : No

Text #25
ID : 28
Format : UTF-8
Codec ID : S_TEXT/UTF8
Codec ID/Info : UTF-8 Plain Text
Duration : 1 h 54 min
Bit rate : 34 b/s
Count of elements : 694
Stream size : 29.3 KiB (0%)
Title : Slovenian
Language : Slovenian
Default : No
Forced : No

Text #26
ID : 29
Format : UTF-8
Codec ID : S_TEXT/UTF8
Codec ID/Info : UTF-8 Plain Text
Duration : 1 h 58 min
Bit rate : 34 b/s
Count of elements : 715
Stream size : 30.1 KiB (0%)
Title : Swedish
Language : Swedish
Default : No
Forced : No

Text #27
ID : 30
Format : UTF-8
Codec ID : S_TEXT/UTF8
Codec ID/Info : UTF-8 Plain Text
Duration : 1 h 58 min
Bit rate : 95 b/s
Count of elements : 1061
Stream size : 82.3 KiB (0%)
Title : Thai
Language : Thai
Default : No
Forced : No

Text #28
ID : 31
Format : UTF-8
Codec ID : S_TEXT/UTF8
Codec ID/Info : UTF-8 Plain Text
Duration : 1 h 54 min
Bit rate : 43 b/s
Count of elements : 826
Stream size : 36.3 KiB (0%)
Title : Turkish
Language : Turkish
Default : No
Forced : No

Text #29
ID : 32
Format : UTF-8
Codec ID : S_TEXT/UTF8
Codec ID/Info : UTF-8 Plain Text
Duration : 1 h 54 min
Bit rate : 39 b/s
Count of elements : 1061
Stream size : 33.0 KiB (0%)
Title : Chinese Cantonese Traditional
Language : Chinese
Default : No
Forced : No

Menu
00:00:00.000 : en:Chapter 01
00:09:34.000 : en:Chapter 02
00:22:12.000 : en:Chapter 03
00:27:37.000 : en:Chapter 04
00:32:23.000 : en:Chapter 05
00:40:19.000 : en:Chapter 06
00:47:03.000 : en:Chapter 07
00:54:12.000 : en:Chapter 08
00:59:13.000 : en:Chapter 09
01:05:38.000 : en:Chapter 10
01:12:01.000 : en:Chapter 11
01:17:59.000 : en:Chapter 12
01:25:27.000 : en:Chapter 13
01:31:23.000 : en:Chapter 14
01:45:05.000 : en:Chapter 15
01:54:46.000 : en:Chapter 16

(He/Him) He's BvSRips. I dedicate myself to sharing files on this blog for free. But it is difficult to maintain the links online for a long time, they are denounced and deleted, reuploading costs more work, that is why a section for VIP users was created, where they can download all the files published 100% in MEGA, as premium, without spend more. I would greatly appreciate your collaboration so that this blog remains online for a longer time.

BUY VIP HERE

Leave a Reply

Your email address will not be published. Required fields are marked *