Thunderball (1965) | 720p & 1080p & 2160p BluRay x265-BvS

James Bond heads to the Bahamas to recover two nuclear warheads stolen by S.P.E.C.T.R.E. Agent Emilio Largo in an international extortion scheme.

Links: IMDB  – Trailer

Note: In English with English/Spanish/Portuguese Selectable Subtitles

DOWNLOAD

VIP

This content is reserved for registered users. Sign up here o login to be able to see it. Buy your VIP membership

FREE

  • Thunderball.1965.2160p.WEB-DL.DTS-HD.MA.5.1.HEVC-AjA – 14.30GB (ONLY VIP)

NFO

1080p.x265-BvS

General
Unique ID : 178509758698834002710094583732665899519 (0x864BBA9D683AABBC61926D07E9ACD9FF)
Complete name : Thunderball.1965.2160p.WEB-DL.DTS-HD.MA.5.1.HEVC-AjA.mkv
Format : Matroska
Format version : Version 4
File size : 14.4 GiB
Duration : 2 h 10 min
Overall bit rate mode : Variable
Overall bit rate : 15.8 Mb/s
Movie name : Thunderball (1965)
Encoded date : UTC 2022-05-05 21:54:16
Writing application : mkvmerge v66.0.0 (‘Josie’) 64-bit
Writing library : libebml v1.4.2 + libmatroska v1.6.4

Video
ID : 1
Format : HEVC
Format/Info : High Efficiency Video Coding
Format profile : Main [email protected]@High
Codec ID : V_MPEGH/ISO/HEVC
Duration : 2 h 10 min
Bit rate : 12.0 Mb/s
Width : 3 840 pixels
Height : 1 628 pixels
Display aspect ratio : 2.35:1
Frame rate mode : Constant
Frame rate : 23.976 FPS
Color space : YUV
Chroma subsampling : 4:2:0
Bit depth : 10 bits
Bits/(Pixel*Frame) : 0.080
Stream size : 10.9 GiB (76%)
Default : Yes
Forced : No
Color range : Limited
Color primaries : BT.709
Transfer characteristics : BT.709
Matrix coefficients : BT.709

Audio #1
ID : 2
Format : DTS XLL
Format/Info : Digital Theater Systems
Commercial name : DTS-HD Master Audio
Codec ID : A_DTS
Duration : 2 h 10 min
Bit rate mode : Variable
Bit rate : 3 436 kb/s
Channel(s) : 6 channels
Channel layout : C L R Ls Rs LFE
Sampling rate : 48.0 kHz
Frame rate : 93.750 FPS (512 SPF)
Bit depth : 24 bits
Compression mode : Lossless
Delay relative to video : 5 s 506 ms
Stream size : 3.13 GiB (22%)
Language : English
Default : Yes
Forced : No

Audio #2
ID : 3
Format : AC-3
Format/Info : Audio Coding 3
Commercial name : Dolby Digital
Codec ID : A_AC3
Duration : 2 h 10 min
Bit rate mode : Constant
Bit rate : 384 kb/s
Channel(s) : 6 channels
Channel layout : L R C LFE Ls Rs
Sampling rate : 48.0 kHz
Frame rate : 31.250 FPS (1536 SPF)
Compression mode : Lossy
Stream size : 358 MiB (2%)
Title : British
Language : English
Service kind : Complete Main
Default : Yes
Forced : No

Text #1
ID : 4
Format : UTF-8
Codec ID : S_TEXT/UTF8
Codec ID/Info : UTF-8 Plain Text
Duration : 2 h 7 min
Bit rate : 37 b/s
Count of elements : 1053
Stream size : 35.0 KiB (0%)
Language : English
Default : No
Forced : No

Text #2
ID : 5
Format : UTF-8
Codec ID : S_TEXT/UTF8
Codec ID/Info : UTF-8 Plain Text
Duration : 2 h 8 min
Bit rate : 38 b/s
Count of elements : 940
Stream size : 36.1 KiB (0%)
Title : Latin American
Language : Spanish
Default : No
Forced : No

Text #3
ID : 6
Format : UTF-8
Codec ID : S_TEXT/UTF8
Codec ID/Info : UTF-8 Plain Text
Duration : 2 h 9 min
Bit rate : 30 b/s
Count of elements : 814
Stream size : 28.7 KiB (0%)
Language : French
Default : No
Forced : No

Text #4
ID : 7
Format : UTF-8
Codec ID : S_TEXT/UTF8
Codec ID/Info : UTF-8 Plain Text
Duration : 2 h 8 min
Bit rate : 32 b/s
Count of elements : 1024
Stream size : 30.8 KiB (0%)
Title : Brazilian
Language : Portuguese
Default : No
Forced : No

Menu
00:00:05.506 : :Chapter01
00:04:50.248 : :Chapter02
00:07:49.678 : :Chapter03
00:11:38.698 : :Chapter04
00:18:33.070 : :Chapter05
00:22:51.954 : :Chapter06
00:26:18.535 : :Chapter07
00:29:27.057 : :Chapter08
00:37:08.643 : :Chapter09
00:38:54.874 : :Chapter10
00:44:08.187 : :Chapter11
00:48:47.716 : :Chapter12
00:54:23.051 : :Chapter13
00:58:54.656 : :Chapter14
01:01:43.617 : :Chapter15
01:03:01.444 : :Chapter16
01:06:23.021 : :Chapter17
01:14:30.174 : :Chapter18
01:21:28.926 : :Chapter19
01:26:03.617 : :Chapter20
01:28:58.792 : :Chapter21
01:32:00.849 : :Chapter22
01:37:05.361 : :Chapter23
01:41:50.605 : :Chapter24
01:48:41.682 : :Chapter25
01:51:25.178 : :Chapter26
01:53:20.127 : :Chapter27
01:55:59.661 : :Chapter28
02:03:35.033 : :Chapter29
02:05:08.584 : :Chapter30
02:08:16.439 : :Chapter31
02:09:36.560 : :Chapter32
02:10:28.696 : :Chapter33

 

(He/Him) He's BvSRips. I dedicate myself to sharing files on this blog for free. But it is difficult to maintain the links online for a long time, they are denounced and deleted, reuploading costs more work, that is why a section for VIP users was created, where they can download all the files published 100% in MEGA, as premium, without spend more. I would greatly appreciate your collaboration so that this blog remains online for a longer time.

BUY VIP HERE

Leave a Reply

Your email address will not be published. Required fields are marked *