Thor Love and Thunder (2022) | 720p & 1080p & 2160p BluRay x265-BvS

Thor’s retirement is interrupted by a galactic killer known as Gorr the God Butcher, who seeks the extinction of the gods.

Links: iMDB | Trailer

Note: In English with English/Spanish Selectable Subtitles

DOWNLOAD

VIP (MEGA FOLDER)

This content is reserved for registered users. Sign up here o login to be able to see it. Buy your VIP membership

FREE

  • Thor.Love.and.Thunder.2022.2160p.WEB-DL.DDP5.1.Atmos.DV.HEVC-CMRG – 20.6GB (ONLY VIP)
  • Thor.Love.and.Thunder.2022.2160p.WEB-DL.DDP5.1.Atmos.HDR.HEVC-CMRG – 20.4GB (ONLY VIP)
  • Thor.Love.and.Thunder.2022.1080p.WEB-DL.DDP5.1.Atmos.H.264-CMRG – 8.76GB (ONLY VIP)
  • Thor.Love.And.Thunder.2022.1080p.webrip.x265-BvS – 1.36GB

NFO

Thor.Love.and.Thunder.2022.2160p.WEB-DL.DDP5.1.Atmos.DV.HEVC-CMRG

General
Unique ID : 249611052350437666805504903874996229740 (0xBBC9570B5D88E339BA2BD704C192566C)
Complete name : Thor.Love.and.Thunder.2022.2160p.WEB-DL.DDP5.1.Atmos.DV.HEVC-CMRG.mkv
Format : Matroska
Format version : Version 4
File size : 20.6 GiB
Duration : 1 h 58 min
Overall bit rate : 24.8 Mb/s
Encoded date : UTC 2022-09-07 13:05:25
Writing application : mkvmerge v70.0.0 (‘Caught A Lite Sneeze’) 64-bit
Writing library : libebml v1.4.2 + libmatroska v1.6.4

Video
ID : 1
Format : HEVC
Format/Info : High Efficiency Video Coding
Format profile : Main [email protected]@High
HDR format : Dolby Vision, Version 1.0, dvhe.05.06, BL+RPU
Codec ID : V_MPEGH/ISO/HEVC
Duration : 1 h 58 min
Bit rate : 24.1 Mb/s
Width : 3 840 pixels
Height : 1 608 pixels
Display aspect ratio : 2.40:1
Frame rate mode : Variable
Frame rate : 23.951 FPS
Original frame rate : 23.976 (24000/1001) FPS
Color space : YUV
Chroma subsampling : 4:2:0
Bit depth : 10 bits
Bits/(Pixel*Frame) : 0.163
Stream size : 20.0 GiB (97%)
Language : English
Default : Yes
Forced : No

Audio
ID : 2
Format : E-AC-3 JOC
Format/Info : Enhanced AC-3 with Joint Object Coding
Commercial name : Dolby Digital Plus with Dolby Atmos
Codec ID : A_EAC3
Duration : 1 h 58 min
Bit rate mode : Constant
Bit rate : 768 kb/s
Channel(s) : 6 channels
Channel layout : L R C LFE Ls Rs
Sampling rate : 48.0 kHz
Frame rate : 31.250 FPS (1536 SPF)
Compression mode : Lossy
Stream size : 652 MiB (3%)
Language : English
Service kind : Complete Main
Default : Yes
Forced : No
Complexity index : 16
Number of dynamic objects : 15
Bed channel count : 1 channel
Bed channel configuration : LFE

Text #1
ID : 3
Format : UTF-8
Codec ID : S_TEXT/UTF8
Codec ID/Info : UTF-8 Plain Text
Duration : 1 h 57 min
Bit rate : 55 b/s
Count of elements : 1598
Stream size : 47.5 KiB (0%)
Language : English
Default : No
Forced : No

Text #2
ID : 4
Format : UTF-8
Codec ID : S_TEXT/UTF8
Codec ID/Info : UTF-8 Plain Text
Duration : 1 h 57 min
Bit rate : 55 b/s
Count of elements : 1613
Stream size : 47.6 KiB (0%)
Title : Latin American
Language : Spanish
Default : No
Forced : No

Menu
00:00:00.000 : en:Chapter 01
00:06:45.155 : en:Chapter 02
00:10:11.319 : en:Chapter 03
00:14:23.780 : en:Chapter 04
00:18:13.426 : en:Chapter 05
00:20:59.509 : en:Chapter 06
00:21:47.807 : en:Chapter 07
00:27:00.995 : en:Chapter 08
00:28:16.196 : en:Chapter 09
00:29:52.250 : en:Chapter 10
00:31:24.509 : en:Chapter 11
00:35:15.115 : en:Chapter 12
00:38:40.445 : en:Chapter 13
00:45:37.445 : en:Chapter 14
00:53:04.225 : en:Chapter 15
01:06:19.396 : en:Chapter 16
01:14:16.915 : en:Chapter 17
01:24:35.825 : en:Chapter 18
01:28:31.186 : en:Chapter 19
01:30:20.003 : en:Chapter 20
01:34:17.657 : en:Chapter 21
01:38:12.684 : en:Chapter 22
01:44:45.535 : en:Chapter 23
01:48:17.622 : en:Chapter 24
01:50:03.436 : en:Chapter 25
01:51:14.716 : en:Chapter 26

Thor.Love.and.Thunder.2022.2160p.WEB-DL.DDP5.1.Atmos.HDR.HEVC-CMRG

General
Unique ID : 276185010823366457686575083257978553635 (0xCFC74C5A5874D840D7F4B8FC9BAE0523)
Complete name : F:\mega\Thor\Thor.Love.and.Thunder.2022.2160p.WEB-DL.DDP5.1.Atmos.HDR.HEVC-CMRG.mkv
Format : Matroska
Format version : Version 4
File size : 20.4 GiB
Duration : 1 h 58 min
Overall bit rate : 24.6 Mb/s
Encoded date : UTC 2022-09-07 13:02:58
Writing application : mkvmerge v70.0.0 (‘Caught A Lite Sneeze’) 64-bit
Writing library : libebml v1.4.2 + libmatroska v1.6.4

Video
ID : 1
Format : HEVC
Format/Info : High Efficiency Video Coding
Format profile : Main [email protected]@High
HDR format : SMPTE ST 2086, HDR10 compatible
Codec ID : V_MPEGH/ISO/HEVC
Duration : 1 h 58 min
Bit rate : 23.8 Mb/s
Width : 3 840 pixels
Height : 1 608 pixels
Display aspect ratio : 2.40:1
Frame rate mode : Variable
Frame rate : 23.951 FPS
Color space : YUV
Chroma subsampling : 4:2:0 (Type 2)
Bit depth : 10 bits
Bits/(Pixel*Frame) : 0.161
Stream size : 19.8 GiB (97%)
Language : English
Default : Yes
Forced : No
Color range : Limited
Color primaries : BT.2020
Transfer characteristics : PQ
Matrix coefficients : BT.2020 non-constant
Mastering display color primaries : BT.2020
Mastering display luminance : min: 0.0050 cd/m2, max: 1000 cd/m2
Maximum Content Light Level : 1863 cd/m2
Maximum Frame-Average Light Level : 980 cd/m2

Audio
ID : 2
Format : E-AC-3 JOC
Format/Info : Enhanced AC-3 with Joint Object Coding
Commercial name : Dolby Digital Plus with Dolby Atmos
Codec ID : A_EAC3
Duration : 1 h 58 min
Bit rate mode : Constant
Bit rate : 768 kb/s
Channel(s) : 6 channels
Channel layout : L R C LFE Ls Rs
Sampling rate : 48.0 kHz
Frame rate : 31.250 FPS (1536 SPF)
Compression mode : Lossy
Stream size : 652 MiB (3%)
Language : English
Service kind : Complete Main
Default : Yes
Forced : No
Complexity index : 16
Number of dynamic objects : 15
Bed channel count : 1 channel
Bed channel configuration : LFE

Text #1
ID : 3
Format : UTF-8
Codec ID : S_TEXT/UTF8
Codec ID/Info : UTF-8 Plain Text
Duration : 1 h 57 min
Bit rate : 55 b/s
Count of elements : 1598
Stream size : 47.5 KiB (0%)
Language : English
Default : No
Forced : No

Text #2
ID : 4
Format : UTF-8
Codec ID : S_TEXT/UTF8
Codec ID/Info : UTF-8 Plain Text
Duration : 1 h 57 min
Bit rate : 55 b/s
Count of elements : 1613
Stream size : 47.6 KiB (0%)
Title : Latin American
Language : Spanish
Default : No
Forced : No

Menu
00:00:00.000 : en:Chapter 01
00:06:45.155 : en:Chapter 02
00:10:11.319 : en:Chapter 03
00:14:23.780 : en:Chapter 04
00:18:13.426 : en:Chapter 05
00:20:59.509 : en:Chapter 06
00:21:47.807 : en:Chapter 07
00:27:00.995 : en:Chapter 08
00:28:16.196 : en:Chapter 09
00:29:52.250 : en:Chapter 10
00:31:24.509 : en:Chapter 11
00:35:15.115 : en:Chapter 12
00:38:40.445 : en:Chapter 13
00:45:37.445 : en:Chapter 14
00:53:04.225 : en:Chapter 15
01:06:19.396 : en:Chapter 16
01:14:16.915 : en:Chapter 17
01:24:35.825 : en:Chapter 18
01:28:31.186 : en:Chapter 19
01:30:20.003 : en:Chapter 20
01:34:17.657 : en:Chapter 21
01:38:12.684 : en:Chapter 22
01:44:45.535 : en:Chapter 23
01:48:17.622 : en:Chapter 24
01:50:03.436 : en:Chapter 25
01:51:14.716 : en:Chapter 26

Thor.Love.and.Thunder.2022.1080p.WEB-DL.DDP5.1.Atmos.H.264-CMRG

General
Unique ID : 333611739809933568068530199968215141137 (0xFAFB48B0F0EE23258380D737F3F30B11)
Complete name : Thor.Love.and.Thunder.2022.1080p.WEB-DL.DDP5.1.Atmos.H.264-CMRG.mkv
Format : Matroska
Format version : Version 4
File size : 8.77 GiB
Duration : 1 h 58 min
Overall bit rate : 10.6 Mb/s
Encoded date : UTC 2022-09-07 13:01:30
Writing application : mkvmerge v70.0.0 (‘Caught A Lite Sneeze’) 64-bit
Writing library : libebml v1.4.2 + libmatroska v1.6.4

Video
ID : 1
Format : AVC
Format/Info : Advanced Video Codec
Format profile : [email protected]
Format settings : CABAC / 5 Ref Frames
Format settings, CABAC : Yes
Format settings, Reference frames : 5 frames
Codec ID : V_MPEG4/ISO/AVC
Duration : 1 h 58 min
Bit rate : 9 787 kb/s
Width : 1 920 pixels
Height : 804 pixels
Display aspect ratio : 2.40:1
Frame rate mode : Constant
Frame rate : 23.976 FPS
Color space : YUV
Chroma subsampling : 4:2:0
Bit depth : 8 bits
Scan type : Progressive
Bits/(Pixel*Frame) : 0.264
Stream size : 8.13 GiB (93%)
Language : English
Default : Yes
Forced : No
Color range : Limited
Color primaries : BT.709
Transfer characteristics : BT.709
Matrix coefficients : BT.709

Audio
ID : 2
Format : E-AC-3 JOC
Format/Info : Enhanced AC-3 with Joint Object Coding
Commercial name : Dolby Digital Plus with Dolby Atmos
Codec ID : A_EAC3
Duration : 1 h 58 min
Bit rate mode : Constant
Bit rate : 768 kb/s
Channel(s) : 6 channels
Channel layout : L R C LFE Ls Rs
Sampling rate : 48.0 kHz
Frame rate : 31.250 FPS (1536 SPF)
Compression mode : Lossy
Stream size : 652 MiB (7%)
Language : English
Service kind : Complete Main
Default : Yes
Forced : No
Complexity index : 16
Number of dynamic objects : 15
Bed channel count : 1 channel
Bed channel configuration : LFE

Text #1
ID : 3
Format : UTF-8
Codec ID : S_TEXT/UTF8
Codec ID/Info : UTF-8 Plain Text
Duration : 1 h 57 min
Bit rate : 55 b/s
Count of elements : 1598
Stream size : 47.5 KiB (0%)
Language : English
Default : No
Forced : No

Text #2
ID : 4
Format : UTF-8
Codec ID : S_TEXT/UTF8
Codec ID/Info : UTF-8 Plain Text
Duration : 1 h 57 min
Bit rate : 55 b/s
Count of elements : 1613
Stream size : 47.6 KiB (0%)
Title : Latin American
Language : Spanish
Default : No
Forced : No

Menu
00:00:00.000 : en:Chapter 01
00:06:45.155 : en:Chapter 02
00:10:11.319 : en:Chapter 03
00:14:23.780 : en:Chapter 04
00:18:13.426 : en:Chapter 05
00:20:59.509 : en:Chapter 06
00:21:47.807 : en:Chapter 07
00:27:00.995 : en:Chapter 08
00:28:16.196 : en:Chapter 09
00:29:52.250 : en:Chapter 10
00:31:24.509 : en:Chapter 11
00:35:15.115 : en:Chapter 12
00:38:40.445 : en:Chapter 13
00:45:37.445 : en:Chapter 14
00:53:04.225 : en:Chapter 15
01:06:19.396 : en:Chapter 16
01:14:16.915 : en:Chapter 17
01:24:35.825 : en:Chapter 18
01:28:31.186 : en:Chapter 19
01:30:20.003 : en:Chapter 20
01:34:17.657 : en:Chapter 21
01:38:12.684 : en:Chapter 22
01:44:45.535 : en:Chapter 23
01:48:17.622 : en:Chapter 24
01:50:03.436 : en:Chapter 25
01:51:14.716 : en:Chapter 26

Thor.Love.And.Thunder.2022.1080p.webrip.x265-BvS

General
Unique ID : 131349662449642546961698342916029178030 (0x62D10659ED90BD56355D0FEEFAF860AE)
Complete name : Thor.Love.And.Thunder.2022.1080p.webrip.x265-BvS.mkv
Format : Matroska
Format version : Version 4
File size : 1.37 GiB
Duration : 1 h 58 min
Overall bit rate : 1 649 kb/s
Movie name : BvSRips
Encoded date : UTC 2022-09-15 01:29:03
Writing application : mkvmerge v63.0.0 (‘Everything’) 64-bit
Writing library : libebml v1.4.2 + libmatroska v1.6.4

Video
ID : 1
Format : HEVC
Format/Info : High Efficiency Video Coding
Format profile : [email protected]@High
Codec ID : V_MPEGH/ISO/HEVC
Duration : 1 h 58 min
Bit rate : 1 391 kb/s
Width : 1 920 pixels
Height : 804 pixels
Display aspect ratio : 2.40:1
Frame rate mode : Constant
Frame rate : 23.976 (24000/1001) FPS
Color space : YUV
Chroma subsampling : 4:2:0
Bit depth : 8 bits
Bits/(Pixel*Frame) : 0.038
Stream size : 1.16 GiB (84%)
Writing library : x265 3.5+1-f0c1022b6:[Windows][GCC 10.2.0][64 bit] 8bit+10bit+12bit
Encoding settings : cpuid=1111039 / frame-threads=4 / numa-pools=16 / wpp / no-pmode / no-pme / psnr / no-ssim / log-level=2 / input-csp=1 / input-res=1920×804 / interlace=0 / total-frames=0 / level-idc=41 / high-tier=1 / uhd-bd=0 / ref=3 / no-allow-non-conformance / no-repeat-headers / annexb / no-aud / no-hrd / info / hash=0 / no-temporal-layers / open-gop / min-keyint=24 / keyint=240 / gop-lookahead=0 / bframes=4 / b-adapt=0 / b-pyramid / bframe-bias=0 / rc-lookahead=15 / lookahead-slices=5 / scenecut=40 / hist-scenecut=0 / radl=0 / no-splice / no-intra-refresh / ctu=64 / min-cu-size=8 / no-rect / no-amp / max-tu-size=32 / tu-inter-depth=1 / tu-intra-depth=1 / limit-tu=0 / rdoq-level=0 / dynamic-rd=0.00 / no-ssim-rd / signhide / no-tskip / nr-intra=0 / nr-inter=0 / no-constrained-intra / strong-intra-smoothing / max-merge=2 / limit-refs=3 / no-limit-modes / me=1 / subme=2 / merange=57 / temporal-mvp / no-frame-dup / no-hme / weightp / no-weightb / no-analyze-src-pics / deblock=0:0 / sao / no-sao-non-deblock / rd=2 / selective-sao=4 / no-early-skip / rskip / fast-intra / no-tskip-fast / no-cu-lossless / no-b-intra / no-splitrd-skip / rdpenalty=0 / psy-rd=0.00 / psy-rdoq=0.00 / no-rd-refine / no-lossless / cbqpoffs=0 / crqpoffs=0 / rc=crf / crf=22.0 / qcomp=0.60 / qpstep=4 / stats-write=0 / stats-read=0 / vbv-maxrate=50000 / vbv-bufsize=50000 / vbv-init=0.9 / min-vbv-fullness=50.0 / max-vbv-fullness=80.0 / crf-max=0.0 / crf-min=0.0 / ipratio=1.40 / pbratio=1.30 / aq-mode=2 / aq-strength=0.00 / cutree / zone-count=0 / no-strict-cbr / qg-size=32 / no-rc-grain / qpmax=69 / qpmin=0 / no-const-vbv / sar=1 / overscan=0 / videoformat=5 / range=0 / colorprim=1 / transfer=1 / colormatrix=1 / chromaloc=0 / display-window=0 / cll=0,0 / min-luma=0 / max-luma=255 / log2-max-poc-lsb=8 / vui-timing-info / vui-hrd-info / slices=1 / no-opt-qp-pps / no-opt-ref-list-length-pps / no-multi-pass-opt-rps / scenecut-bias=0.05 / hist-threshold=0.03 / no-opt-cu-delta-qp / no-aq-motion / no-hdr10 / no-hdr10-opt / no-dhdr10-opt / no-idr-recovery-sei / analysis-reuse-level=0 / analysis-save-reuse-level=0 / analysis-load-reuse-level=0 / scale-factor=0 / refine-intra=0 / refine-inter=0 / refine-mv=1 / refine-ctu-distortion=0 / no-limit-sao / ctu-info=0 / no-lowpass-dct / refine-analysis-type=0 / copy-pic=1 / max-ausize-factor=1.0 / no-dynamic-refine / no-single-sei / no-hevc-aq / no-svt / no-field / qp-adaptation-range=1.00 / scenecut-aware-qp=0conformance-window-offsets / right=0 / bottom=0 / decoder-max-rate=0 / no-vbv-live-multi-pass
Default : Yes
Forced : No
Color range : Limited
Color primaries : BT.709
Transfer characteristics : BT.709
Matrix coefficients : BT.709

Audio
ID : 2
Format : AAC LC SBR
Format/Info : Advanced Audio Codec Low Complexity with Spectral Band Replication
Commercial name : HE-AAC
Format settings : NBC
Codec ID : A_AAC-5
Duration : 1 h 58 min
Bit rate : 256 kb/s
Channel(s) : 6 channels
Channel layout : C L R Ls Rs LFE
Sampling rate : 48.0 kHz
Frame rate : 23.438 FPS (2048 SPF)
Compression mode : Lossy
Delay relative to video : -105 ms
Stream size : 217 MiB (16%)
Language : English
Default : Yes
Forced : No

Text #1
ID : 3
Format : UTF-8
Codec ID : S_TEXT/UTF8
Codec ID/Info : UTF-8 Plain Text
Duration : 1 h 57 min
Bit rate : 55 b/s
Count of elements : 1613
Stream size : 47.6 KiB (0%)
Language : Spanish
Default : Yes
Forced : No

Text #2
ID : 4
Format : UTF-8
Codec ID : S_TEXT/UTF8
Codec ID/Info : UTF-8 Plain Text
Duration : 1 h 57 min
Bit rate : 55 b/s
Count of elements : 1598
Stream size : 47.5 KiB (0%)
Language : English
Default : Yes
Forced : No

Text #3
ID : 5
Format : ASS
Codec ID : S_TEXT/ASS
Codec ID/Info : Advanced Sub Station Alpha
Duration : 4 s 500 ms
Bit rate : 149 b/s
Count of elements : 1
Compression mode : Lossless
Stream size : 84.0 Bytes (0%)
Default : Yes
Forced : Yes

Menu
00:00:00.000 : en:Chapter 1
00:06:45.155 : en:Chapter 2
00:10:11.319 : en:Chapter 3
00:14:23.821 : en:Chapter 4
00:18:13.426 : en:Chapter 5
00:20:59.592 : en:Chapter 6
00:21:47.848 : en:Chapter 7
00:27:01.078 : en:Chapter 8
00:28:16.278 : en:Chapter 9
00:29:52.332 : en:Chapter 10
00:31:24.591 : en:Chapter 11
00:35:15.196 : en:Chapter 12
00:38:40.527 : en:Chapter 13
00:45:37.526 : en:Chapter 14
00:53:04.306 : en:Chapter 15
01:06:19.476 : en:Chapter 16
01:14:16.994 : en:Chapter 17
01:24:35.904 : en:Chapter 18
01:28:31.264 : en:Chapter 19
01:30:20.040 : en:Chapter 20
01:34:17.735 : en:Chapter 21
01:38:12.762 : en:Chapter 22
01:44:45.571 : en:Chapter 23
01:48:17.658 : en:Chapter 24
01:50:03.514 : en:Chapter 25
01:51:14.793 : en:Chapter 26

 

(He/Him) He's BvSRips. I dedicate myself to sharing files on this blog for free. But it is difficult to maintain the links online for a long time, they are denounced and deleted, reuploading costs more work, that is why a section for VIP users was created, where they can download all the files published 100% in MEGA, as premium, without spend more. I would greatly appreciate your collaboration so that this blog remains online for a longer time.

BUY VIP HERE

Leave a Reply

Your email address will not be published. Required fields are marked *