The World Is Not Enough (1999) | 720p & 1080p & 2160p BluRay x265-BvS

James Bond uncovers a nuclear plot while protecting an oil heiress from her former kidnapper, an international terrorist who can’t feel pain.

Links: IMDB  – Trailer

Note: In English with English/French/German/Spanish Selectable Subtitles

DOWNLOAD

VIP

This content is reserved for registered users. Sign up here o login to be able to see it. Buy your VIP membership

FREE

  • The.World.Is.Not.Enough.1999.2160p.HYBRID.WEB-DL.DTS-HD.MA.5.1.HEVC-AjA – 21GB (ONLY VIP)

NFO

The.World.Is.Not.Enough.1999.2160p.HYBRID.WEB-DL.DTS-HD.MA.5.1.HEVC-AjA

General
Unique ID : 53885279874582844474767817800189977260 (0x2889ED6A8F28C5860425AD905D33A2AC)
Complete name : The.World.Is.Not.Enough.1999.2160p.HYBRID.WEB-DL.DTS-HD.MA.5.1.HEVC-AjA.mkv
Format : Matroska
Format version : Version 4
File size : 21.0 GiB
Duration : 2 h 8 min
Overall bit rate mode : Variable
Overall bit rate : 23.5 Mb/s
Encoded date : UTC 2022-04-29 16:18:04
Writing application : mkvmerge v66.0.0 (‘Josie’) 64-bit
Writing library : libebml v1.4.2 + libmatroska v1.6.4

Video
ID : 1
Format : HEVC
Format/Info : High Efficiency Video Coding
Format profile : Main [email protected]@High
Codec ID : V_MPEGH/ISO/HEVC
Duration : 2 h 8 min
Bit rate : 20.7 Mb/s
Width : 3 840 pixels
Height : 1 634 pixels
Display aspect ratio : 2.35:1
Frame rate mode : Constant
Frame rate : 23.976 FPS
Color space : YUV
Chroma subsampling : 4:2:0
Bit depth : 10 bits
Bits/(Pixel*Frame) : 0.137
Stream size : 18.5 GiB (88%)
Default : Yes
Forced : No
Color range : Limited
Color primaries : BT.709
Transfer characteristics : BT.709
Matrix coefficients : BT.709

Audio #1
ID : 2
Format : DTS XLL
Format/Info : Digital Theater Systems
Commercial name : DTS-HD Master Audio
Codec ID : A_DTS
Duration : 2 h 8 min
Bit rate mode : Variable
Bit rate : 2 425 kb/s
Channel(s) : 6 channels
Channel layout : C L R Ls Rs LFE
Sampling rate : 48.0 kHz
Frame rate : 93.750 FPS (512 SPF)
Bit depth : 24 bits
Compression mode : Lossless
Delay relative to video : 2 ms
Stream size : 2.17 GiB (10%)
Language : English
Default : Yes
Forced : No

Audio #2
ID : 3
Format : AC-3
Format/Info : Audio Coding 3
Commercial name : Dolby Digital
Codec ID : A_AC3
Duration : 2 h 8 min
Bit rate mode : Constant
Bit rate : 384 kb/s
Channel(s) : 6 channels
Channel layout : L R C LFE Ls Rs
Sampling rate : 48.0 kHz
Frame rate : 31.250 FPS (1536 SPF)
Compression mode : Lossy
Stream size : 353 MiB (2%)
Title : British
Language : English
Service kind : Complete Main
Default : No
Forced : No

Text #1
ID : 4
Format : UTF-8
Codec ID : S_TEXT/UTF8
Codec ID/Info : UTF-8 Plain Text
Duration : 2 h 3 min
Bit rate : 41 b/s
Count of elements : 1225
Stream size : 37.2 KiB (0%)
Title : English British (CC)
Language : English
Default : No
Forced : No

Text #2
ID : 5
Format : UTF-8
Codec ID : S_TEXT/UTF8
Codec ID/Info : UTF-8 Plain Text
Duration : 2 h 3 min
Bit rate : 38 b/s
Count of elements : 968
Stream size : 34.8 KiB (0%)
Title : English
Language : English
Default : No
Forced : No

Text #3
ID : 6
Format : UTF-8
Codec ID : S_TEXT/UTF8
Codec ID/Info : UTF-8 Plain Text
Duration : 2 h 3 min
Bit rate : 53 b/s
Count of elements : 1184
Stream size : 48.4 KiB (0%)
Title : Arabic Saudi Arabia
Language : Arabic
Default : No
Forced : No

Text #4
ID : 7
Format : UTF-8
Codec ID : S_TEXT/UTF8
Codec ID/Info : UTF-8 Plain Text
Duration : 2 h 3 min
Bit rate : 58 b/s
Count of elements : 851
Stream size : 53.0 KiB (0%)
Title : Bulgarian
Language : Bulgarian
Default : No
Forced : No

Text #5
ID : 8
Format : UTF-8
Codec ID : S_TEXT/UTF8
Codec ID/Info : UTF-8 Plain Text
Duration : 2 h 3 min
Bit rate : 30 b/s
Count of elements : 994
Stream size : 27.6 KiB (0%)
Title : Chinese Mandarin Chinese Traditional
Language : Chinese
Default : No
Forced : No

Text #6
ID : 9
Format : UTF-8
Codec ID : S_TEXT/UTF8
Codec ID/Info : UTF-8 Plain Text
Duration : 2 h 3 min
Bit rate : 38 b/s
Count of elements : 1066
Stream size : 34.7 KiB (0%)
Title : Czech
Language : Czech
Default : No
Forced : No

Text #7
ID : 10
Format : UTF-8
Codec ID : S_TEXT/UTF8
Codec ID/Info : UTF-8 Plain Text
Duration : 2 h 3 min
Bit rate : 38 b/s
Count of elements : 1066
Stream size : 34.7 KiB (0%)
Title : Danish
Language : Danish
Default : No
Forced : No

Text #8
ID : 11
Format : UTF-8
Codec ID : S_TEXT/UTF8
Codec ID/Info : UTF-8 Plain Text
Duration : 2 h 3 min
Bit rate : 42 b/s
Count of elements : 1080
Stream size : 38.9 KiB (0%)
Title : German
Language : German
Default : No
Forced : No

Text #9
ID : 12
Format : UTF-8
Codec ID : S_TEXT/UTF8
Codec ID/Info : UTF-8 Plain Text
Duration : 2 h 3 min
Bit rate : 72 b/s
Count of elements : 1068
Stream size : 65.6 KiB (0%)
Title : Greek
Language : Greek
Default : No
Forced : No

Text #10
ID : 13
Format : UTF-8
Codec ID : S_TEXT/UTF8
Codec ID/Info : UTF-8 Plain Text
Duration : 2 h 3 min
Bit rate : 41 b/s
Count of elements : 1066
Stream size : 37.2 KiB (0%)
Title : Spanish European
Language : Spanish
Default : No
Forced : No

Text #11
ID : 14
Format : UTF-8
Codec ID : S_TEXT/UTF8
Codec ID/Info : UTF-8 Plain Text
Duration : 2 h 3 min
Bit rate : 41 b/s
Count of elements : 1067
Stream size : 37.6 KiB (0%)
Title : Finnish
Language : Finnish
Default : No
Forced : No

Text #12
ID : 15
Format : UTF-8
Codec ID : S_TEXT/UTF8
Codec ID/Info : UTF-8 Plain Text
Duration : 2 h 3 min
Bit rate : 40 b/s
Count of elements : 990
Stream size : 37.1 KiB (0%)
Title : French European
Language : French
Default : No
Forced : No

Text #13
ID : 16
Format : UTF-8
Codec ID : S_TEXT/UTF8
Codec ID/Info : UTF-8 Plain Text
Duration : 2 h 3 min
Bit rate : 51 b/s
Count of elements : 1068
Stream size : 46.4 KiB (0%)
Title : Hebrew
Language : Hebrew
Default : No
Forced : No

Text #14
ID : 17
Format : UTF-8
Codec ID : S_TEXT/UTF8
Codec ID/Info : UTF-8 Plain Text
Duration : 2 h 3 min
Bit rate : 36 b/s
Count of elements : 1067
Stream size : 33.5 KiB (0%)
Title : Croatian
Language : Croatian
Default : No
Forced : No

Text #15
ID : 18
Format : UTF-8
Codec ID : S_TEXT/UTF8
Codec ID/Info : UTF-8 Plain Text
Duration : 2 h 3 min
Bit rate : 40 b/s
Count of elements : 1066
Stream size : 36.3 KiB (0%)
Title : Hungarian
Language : Hungarian
Default : No
Forced : No

Text #16
ID : 19
Format : UTF-8
Codec ID : S_TEXT/UTF8
Codec ID/Info : UTF-8 Plain Text
Duration : 2 h 3 min
Bit rate : 39 b/s
Count of elements : 843
Stream size : 35.9 KiB (0%)
Title : Icelandic
Language : Icelandic
Default : No
Forced : No

Text #17
ID : 20
Format : UTF-8
Codec ID : S_TEXT/UTF8
Codec ID/Info : UTF-8 Plain Text
Duration : 2 h 3 min
Bit rate : 38 b/s
Count of elements : 1067
Stream size : 34.6 KiB (0%)
Title : Italian
Language : Italian
Default : No
Forced : No

Text #18
ID : 21
Format : UTF-8
Codec ID : S_TEXT/UTF8
Codec ID/Info : UTF-8 Plain Text
Duration : 2 h 3 min
Bit rate : 32 b/s
Count of elements : 1033
Stream size : 29.4 KiB (0%)
Title : Japanese
Language : Japanese
Default : No
Forced : No

Text #19
ID : 22
Format : UTF-8
Codec ID : S_TEXT/UTF8
Codec ID/Info : UTF-8 Plain Text
Duration : 2 h 3 min
Bit rate : 40 b/s
Count of elements : 994
Stream size : 36.4 KiB (0%)
Title : Korean
Language : Korean
Default : No
Forced : No

Text #20
ID : 23
Format : UTF-8
Codec ID : S_TEXT/UTF8
Codec ID/Info : UTF-8 Plain Text
Duration : 2 h 3 min
Bit rate : 36 b/s
Count of elements : 1075
Stream size : 33.1 KiB (0%)
Title : Dutch
Language : Dutch
Default : No
Forced : No

Text #21
ID : 24
Format : UTF-8
Codec ID : S_TEXT/UTF8
Codec ID/Info : UTF-8 Plain Text
Duration : 2 h 3 min
Bit rate : 39 b/s
Count of elements : 1067
Stream size : 36.2 KiB (0%)
Title : Norwegian
Language : Norwegian
Default : No
Forced : No

Text #22
ID : 25
Format : UTF-8
Codec ID : S_TEXT/UTF8
Codec ID/Info : UTF-8 Plain Text
Duration : 2 h 3 min
Bit rate : 41 b/s
Count of elements : 1073
Stream size : 37.5 KiB (0%)
Title : Polish
Language : Polish
Default : No
Forced : No

Text #23
ID : 26
Format : UTF-8
Codec ID : S_TEXT/UTF8
Codec ID/Info : UTF-8 Plain Text
Duration : 2 h 3 min
Bit rate : 42 b/s
Count of elements : 1073
Stream size : 38.5 KiB (0%)
Title : Portuguese European
Language : Portuguese
Default : No
Forced : No

Text #24
ID : 27
Format : UTF-8
Codec ID : S_TEXT/UTF8
Codec ID/Info : UTF-8 Plain Text
Duration : 2 h 3 min
Bit rate : 39 b/s
Count of elements : 841
Stream size : 35.3 KiB (0%)
Title : Romanian
Language : Romanian
Default : No
Forced : No

Text #25
ID : 28
Format : UTF-8
Codec ID : S_TEXT/UTF8
Codec ID/Info : UTF-8 Plain Text
Duration : 2 h 3 min
Bit rate : 56 b/s
Count of elements : 853
Stream size : 51.5 KiB (0%)
Title : Russian
Language : Russian
Default : No
Forced : No

Text #26
ID : 29
Format : UTF-8
Codec ID : S_TEXT/UTF8
Codec ID/Info : UTF-8 Plain Text
Duration : 2 h 3 min
Bit rate : 29 b/s
Count of elements : 961
Stream size : 26.9 KiB (0%)
Title : Slovenian
Language : Slovenian
Default : No
Forced : No

Text #27
ID : 30
Format : UTF-8
Codec ID : S_TEXT/UTF8
Codec ID/Info : UTF-8 Plain Text
Duration : 2 h 3 min
Bit rate : 41 b/s
Count of elements : 1070
Stream size : 37.4 KiB (0%)
Title : Swedish
Language : Swedish
Default : No
Forced : No

Text #28
ID : 31
Format : UTF-8
Codec ID : S_TEXT/UTF8
Codec ID/Info : UTF-8 Plain Text
Duration : 2 h 3 min
Bit rate : 84 b/s
Count of elements : 1172
Stream size : 76.2 KiB (0%)
Title : Thai
Language : Thai
Default : No
Forced : No

Text #29
ID : 32
Format : UTF-8
Codec ID : S_TEXT/UTF8
Codec ID/Info : UTF-8 Plain Text
Duration : 2 h 3 min
Bit rate : 40 b/s
Count of elements : 1066
Stream size : 37.1 KiB (0%)
Title : Turkish
Language : Turkish
Default : No
Forced : No

Text #30
ID : 33
Format : UTF-8
Codec ID : S_TEXT/UTF8
Codec ID/Info : UTF-8 Plain Text
Duration : 2 h 3 min
Bit rate : 55 b/s
Count of elements : 853
Stream size : 50.3 KiB (0%)
Title : Ukrainian
Language : Ukrainian
Default : No
Forced : No

Text #31
ID : 34
Format : UTF-8
Codec ID : S_TEXT/UTF8
Codec ID/Info : UTF-8 Plain Text
Duration : 2 h 3 min
Bit rate : 29 b/s
Count of elements : 994
Stream size : 26.7 KiB (0%)
Title : Chinese Cantonese Traditional
Language : Chinese
Default : No
Forced : No

Menu
00:00:00.000 : en:Chapter 01
00:04:33.000 : en:Chapter 02
00:07:28.000 : en:Chapter 03
00:14:17.000 : en:Chapter 04
00:17:07.000 : en:Chapter 05
00:20:03.000 : en:Chapter 06
00:22:54.000 : en:Chapter 07
00:26:14.000 : en:Chapter 08
00:28:33.000 : en:Chapter 09
00:33:54.000 : en:Chapter 10
00:40:19.000 : en:Chapter 11
00:42:23.000 : en:Chapter 12
00:48:34.000 : en:Chapter 13
00:50:36.000 : en:Chapter 14
00:56:33.000 : en:Chapter 15
00:59:31.000 : en:Chapter 16
01:04:18.000 : en:Chapter 17
01:08:49.000 : en:Chapter 18
01:12:31.000 : en:Chapter 19
01:18:34.000 : en:Chapter 20
01:20:00.000 : en:Chapter 21
01:21:56.000 : en:Chapter 22
01:25:26.000 : en:Chapter 23
01:27:28.000 : en:Chapter 24
01:29:39.000 : en:Chapter 25
01:36:28.000 : en:Chapter 26
01:42:39.000 : en:Chapter 27
01:48:46.000 : en:Chapter 28
01:50:31.000 : en:Chapter 29
01:55:56.000 : en:Chapter 30
02:02:35.000 : en:Chapter 31
02:04:16.000 : en:Chapter 32

(He/Him) He's BvSRips. I dedicate myself to sharing files on this blog for free. But it is difficult to maintain the links online for a long time, they are denounced and deleted, reuploading costs more work, that is why a section for VIP users was created, where they can download all the files published 100% in MEGA, as premium, without spend more. I would greatly appreciate your collaboration so that this blog remains online for a longer time.

BUY VIP HERE

Leave a Reply

Your email address will not be published. Required fields are marked *