The Tragedy of Macbeth (2021) | 720p & 1080p & 2160p BluRay x265-BvS

A Scottish lord becomes convinced by a trio of witches that he will become the next King of Scotland, and his ambitious wife supports him in his plans of seizing power.

Links: iMDB | Trailer

Note: In English with English/French/Spanish/German Selectable Subtitles

DOWNLOAD

VIP

This content is reserved for registered users. Sign up here o login to be able to see it. Buy your VIP membership

FREE

  • The.Tragedy.of.Macbeth.2021.2160p.ATVP.WEB-DL.DDP5.1.Atmos.DV.MP4.x265-DVSUX – 17.90GB (ONLY VIP)
  • The.Tragedy.of.Macbeth.2021.2160p.ATVP.WEB-DL.DDP5.1.Atmos.HDR.HEVC-TEPES – 17.90GB (ONLY VIP)
  • The.Tragedy.of.Macbeth.2021.1080p.ATVP.WEB-DL.DDP5.1.Atmos.H.264-TEPES – 7.50GB (ONLY VIP)
  • The.Tragedy.Of.Macbeth.2021.1080p.atvp.webrip.x265-BvS – 950MB

NFO

The.Tragedy.of.Macbeth.2021.2160p.ATVP.WEB-DL.DDP5.1.Atmos.DV.MP4.x265-DVSUX

General
Complete name : F:\torrent\The.Tragedy.of.Macbeth.2021.2160p.ATVP.WEB-DL.DDP5.1.Atmos.DV.MP4.x265-DVSUX\The.Tragedy.of.Macbeth.2021.2160p.ATVP.WEB-DL.DDP5.1.Atmos.DV.MP4.x265-DVSUX.mp4
Format : MPEG-4
Format profile : Base Media / Version 2
Codec ID : mp42 (isom/mp42/dby1)
File size : 18.0 GiB
Duration : 1 h 45 min
Overall bit rate mode : Variable
Overall bit rate : 24.5 Mb/s
Encoded date : UTC 2022-01-14 05:02:24
Tagged date : UTC 2022-01-14 05:02:24

Video
ID : 1
Format : HEVC
Format/Info : High Efficiency Video Coding
Format profile : Main [email protected]@High
HDR format : Dolby Vision, Version 1.0, dvhe.05.06, BL+RPU
Codec ID : dvhe
Codec ID/Info : High Efficiency Video Coding with Dolby Vision
Duration : 1 h 45 min
Bit rate : 23.7 Mb/s
Width : 2 960 pixels
Original width : 2 956 pixels
Height : 2 160 pixels
Display aspect ratio : 1.370
Original display aspect ratio : 4:3
Frame rate mode : Constant
Frame rate : 23.976 (24000/1001) FPS
Color space : YUV
Chroma subsampling : 4:2:0
Bit depth : 10 bits
Bits/(Pixel*Frame) : 0.155
Stream size : 17.4 GiB (97%)
Default : Yes
Alternate group : 1
Encoded date : UTC 2022-01-14 05:00:57
Tagged date : UTC 2022-01-14 05:02:58
Codec configuration box : hvcC+dvcC

Audio
ID : 2
Format : E-AC-3 JOC
Format/Info : Enhanced AC-3 with Joint Object Coding
Commercial name : Dolby Digital Plus with Dolby Atmos
Codec ID : ec-3
Duration : 1 h 45 min
Bit rate mode : Constant
Bit rate : 768 kb/s
Maximum bit rate : 811 kb/s
Channel(s) : 6 channels
Channel layout : L R C LFE Ls Rs
Sampling rate : 48.0 kHz
Frame rate : 31.250 FPS (1536 SPF)
Compression mode : Lossy
Stream size : 578 MiB (3%)
Title : English
Language : English
Service kind : Complete Main
Default : Yes
Alternate group : 1
Tagged date : UTC 2022-01-14 05:02:58
Complexity index : Not present / 16
Number of dynamic objects : 15
Bed channel count : 1 channel
Bed channel configuration : LFE

Text #1
ID : 3
Format : Timed Text
Codec ID : tx3g
Duration : 1 h 41 min
Bit rate mode : Variable
Bit rate : 88 b/s
Stream size : 65.3 KiB (0%)
Title : English
Language : English
Forced : No
Encoded date : UTC 2022-01-14 05:02:55
Tagged date : UTC 2022-01-14 05:02:58

Text #2
ID : 4
Format : Timed Text
Codec ID : tx3g
Duration : 1 h 40 min
Bit rate mode : Variable
Bit rate : 82 b/s
Stream size : 60.3 KiB (0%)
Title : English
Language : English
Forced : No
Encoded date : UTC 2022-01-14 05:02:55
Tagged date : UTC 2022-01-14 05:02:58

Text #3
ID : 5
Format : Timed Text
Codec ID : tx3g
Duration : 1 h 44 min
Bit rate mode : Variable
Bit rate : 102 b/s
Stream size : 78.2 KiB (0%)
Title : Arabic
Language : Arabic
Forced : No
Encoded date : UTC 2022-01-14 05:02:55
Tagged date : UTC 2022-01-14 05:02:58

Text #4
ID : 6
Format : Timed Text
Codec ID : tx3g
Duration : 1 h 44 min
Bit rate mode : Variable
Bit rate : 118 b/s
Stream size : 90.9 KiB (0%)
Title : Bulgarian
Language : Bulgarian
Forced : No
Encoded date : UTC 2022-01-14 05:02:55
Tagged date : UTC 2022-01-14 05:02:58

Text #5
ID : 7
Format : Timed Text
Codec ID : tx3g
Duration : 1 h 44 min
Bit rate mode : Variable
Bit rate : 73 b/s
Stream size : 55.8 KiB (0%)
Title : Chinese-Cantonese
Language : Chinese
Forced : No
Encoded date : UTC 2022-01-14 05:02:56
Tagged date : UTC 2022-01-14 05:02:58

Text #6
ID : 8
Format : Timed Text
Codec ID : tx3g
Duration : 1 h 44 min
Bit rate mode : Variable
Bit rate : 74 b/s
Stream size : 56.7 KiB (0%)
Title : Chinese-Simplified
Language : Chinese
Forced : No
Encoded date : UTC 2022-01-14 05:02:56
Tagged date : UTC 2022-01-14 05:02:58

Text #7
ID : 9
Format : Timed Text
Codec ID : tx3g
Duration : 1 h 44 min
Bit rate mode : Variable
Bit rate : 68 b/s
Stream size : 52.0 KiB (0%)
Title : Chinese-Traditional
Language : Chinese
Forced : No
Encoded date : UTC 2022-01-14 05:02:56
Tagged date : UTC 2022-01-14 05:02:58

Text #8
ID : 10
Format : Timed Text
Codec ID : tx3g
Duration : 1 h 44 min
Bit rate mode : Variable
Bit rate : 69 b/s
Stream size : 52.9 KiB (0%)
Title : Czech
Language : Czech
Forced : No
Encoded date : UTC 2022-01-14 05:02:56
Tagged date : UTC 2022-01-14 05:02:58

Text #9
ID : 11
Format : Timed Text
Codec ID : tx3g
Duration : 1 h 44 min
Bit rate mode : Variable
Bit rate : 75 b/s
Stream size : 57.9 KiB (0%)
Title : Danish
Language : Danish
Forced : No
Encoded date : UTC 2022-01-14 05:02:56
Tagged date : UTC 2022-01-14 05:02:58

Text #10
ID : 12
Format : Timed Text
Codec ID : tx3g
Duration : 1 h 44 min
Bit rate mode : Variable
Bit rate : 73 b/s
Stream size : 56.2 KiB (0%)
Title : Dutch
Language : Dutch
Forced : No
Encoded date : UTC 2022-01-14 05:02:56
Tagged date : UTC 2022-01-14 05:02:58

Text #11
ID : 13
Format : Timed Text
Codec ID : tx3g
Duration : 1 h 44 min
Bit rate mode : Variable
Bit rate : 69 b/s
Stream size : 53.4 KiB (0%)
Title : Estonian
Language : Estonian
Forced : No
Encoded date : UTC 2022-01-14 05:02:56
Tagged date : UTC 2022-01-14 05:02:58

Text #12
ID : 14
Format : Timed Text
Codec ID : tx3g
Duration : 1 h 44 min
Bit rate mode : Variable
Bit rate : 74 b/s
Stream size : 56.7 KiB (0%)
Title : Finnish
Language : Finnish
Forced : No
Encoded date : UTC 2022-01-14 05:02:56
Tagged date : UTC 2022-01-14 05:02:58

Text #13
ID : 15
Format : Timed Text
Codec ID : tx3g
Duration : 1 h 45 min
Bit rate mode : Variable
Bit rate : 81 b/s
Stream size : 62.5 KiB (0%)
Title : French
Language : French
Forced : No
Encoded date : UTC 2022-01-14 05:02:56
Tagged date : UTC 2022-01-14 05:02:58

Text #14
ID : 16
Format : Timed Text
Codec ID : tx3g
Duration : 1 h 45 min
Bit rate mode : Variable
Bit rate : 81 b/s
Stream size : 62.5 KiB (0%)
Title : French-CA
Language : French
Forced : No
Encoded date : UTC 2022-01-14 05:02:56
Tagged date : UTC 2022-01-14 05:02:58

Text #15
ID : 17
Format : Timed Text
Codec ID : tx3g
Duration : 1 h 45 min
Bit rate mode : Variable
Bit rate : 78 b/s
Stream size : 59.7 KiB (0%)
Title : German
Language : German
Forced : No
Encoded date : UTC 2022-01-14 05:02:56
Tagged date : UTC 2022-01-14 05:02:58

Text #16
ID : 18
Format : Timed Text
Codec ID : tx3g
Duration : 1 h 44 min
Bit rate mode : Variable
Bit rate : 131 b/s
Stream size : 101 KiB (0%)
Title : Greek
Language : Greek
Forced : No
Encoded date : UTC 2022-01-14 05:02:56
Tagged date : UTC 2022-01-14 05:02:58

Text #17
ID : 19
Format : Timed Text
Codec ID : tx3g
Duration : 1 h 44 min
Bit rate mode : Variable
Bit rate : 95 b/s
Stream size : 72.8 KiB (0%)
Title : Hebrew
Language : Hebrew
Forced : No
Encoded date : UTC 2022-01-14 05:02:56
Tagged date : UTC 2022-01-14 05:02:58

Text #18
ID : 20
Format : Timed Text
Codec ID : tx3g
Duration : 1 h 44 min
Bit rate mode : Variable
Bit rate : 215 b/s
Stream size : 165 KiB (0%)
Title : Hindi
Language : Hindi
Forced : No
Encoded date : UTC 2022-01-14 05:02:56
Tagged date : UTC 2022-01-14 05:02:58

Text #19
ID : 21
Format : Timed Text
Codec ID : tx3g
Duration : 1 h 44 min
Bit rate mode : Variable
Bit rate : 78 b/s
Stream size : 60.3 KiB (0%)
Title : Hungarian
Language : Hungarian
Forced : No
Encoded date : UTC 2022-01-14 05:02:57
Tagged date : UTC 2022-01-14 05:02:58

Text #20
ID : 22
Format : Timed Text
Codec ID : tx3g
Duration : 1 h 44 min
Bit rate mode : Variable
Bit rate : 82 b/s
Stream size : 63.4 KiB (0%)
Title : Indonesian
Language : Indonesian
Forced : No
Encoded date : UTC 2022-01-14 05:02:57
Tagged date : UTC 2022-01-14 05:02:58

Text #21
ID : 23
Format : Timed Text
Codec ID : tx3g
Duration : 1 h 44 min
Bit rate mode : Variable
Bit rate : 81 b/s
Stream size : 62.3 KiB (0%)
Title : Italian
Language : Italian
Forced : No
Encoded date : UTC 2022-01-14 05:02:57
Tagged date : UTC 2022-01-14 05:02:58

Text #22
ID : 24
Format : Timed Text
Codec ID : tx3g
Duration : 1 h 45 min
Bit rate mode : Variable
Bit rate : 70 b/s
Stream size : 53.6 KiB (0%)
Title : Japanese
Language : Japanese
Forced : No
Encoded date : UTC 2022-01-14 05:02:57
Tagged date : UTC 2022-01-14 05:02:58

Text #23
ID : 25
Format : Timed Text
Codec ID : tx3g
Duration : 1 h 44 min
Bit rate mode : Variable
Bit rate : 88 b/s
Stream size : 67.5 KiB (0%)
Title : Korean
Language : Korean
Forced : No
Encoded date : UTC 2022-01-14 05:02:57
Tagged date : UTC 2022-01-14 05:02:58

Text #24
ID : 26
Format : Timed Text
Codec ID : tx3g
Duration : 1 h 44 min
Bit rate mode : Variable
Bit rate : 77 b/s
Stream size : 59.4 KiB (0%)
Title : Latvian
Language : Latvian
Forced : No
Encoded date : UTC 2022-01-14 05:02:57
Tagged date : UTC 2022-01-14 05:02:58

Text #25
ID : 27
Format : Timed Text
Codec ID : tx3g
Duration : 1 h 44 min
Bit rate mode : Variable
Bit rate : 78 b/s
Stream size : 60.3 KiB (0%)
Title : Lithuanian
Language : Lithuanian
Forced : No
Encoded date : UTC 2022-01-14 05:02:57
Tagged date : UTC 2022-01-14 05:02:58

Text #26
ID : 28
Format : Timed Text
Codec ID : tx3g
Duration : 1 h 44 min
Bit rate mode : Variable
Bit rate : 77 b/s
Stream size : 59.0 KiB (0%)
Title : Malay
Language : Malay
Forced : No
Encoded date : UTC 2022-01-14 05:02:57
Tagged date : UTC 2022-01-14 05:02:58

Text #27
ID : 29
Format : Timed Text
Codec ID : tx3g
Duration : 1 h 44 min
Bit rate mode : Variable
Bit rate : 72 b/s
Stream size : 55.3 KiB (0%)
Title : Norwegian
Language : Norwegian
Forced : No
Encoded date : UTC 2022-01-14 05:02:57
Tagged date : UTC 2022-01-14 05:02:58

Text #28
ID : 30
Format : Timed Text
Codec ID : tx3g
Duration : 1 h 44 min
Bit rate mode : Variable
Bit rate : 78 b/s
Stream size : 60.1 KiB (0%)
Title : Polish
Language : Polish
Forced : No
Encoded date : UTC 2022-01-14 05:02:57
Tagged date : UTC 2022-01-14 05:02:58

Text #29
ID : 31
Format : Timed Text
Codec ID : tx3g
Duration : 1 h 44 min
Bit rate mode : Variable
Bit rate : 79 b/s
Stream size : 60.9 KiB (0%)
Title : Portuguese
Language : Portuguese
Forced : No
Encoded date : UTC 2022-01-14 05:02:57
Tagged date : UTC 2022-01-14 05:02:58

Text #30
ID : 32
Format : Timed Text
Codec ID : tx3g
Duration : 1 h 44 min
Bit rate mode : Variable
Bit rate : 79 b/s
Stream size : 61.0 KiB (0%)
Title : Portuguese-BR
Language : Portuguese
Forced : No
Encoded date : UTC 2022-01-14 05:02:57
Tagged date : UTC 2022-01-14 05:02:58

Text #31
ID : 33
Format : Timed Text
Codec ID : tx3g
Duration : 1 h 45 min
Bit rate mode : Variable
Bit rate : 112 b/s
Stream size : 86.2 KiB (0%)
Title : Russian
Language : Russian
Forced : No
Encoded date : UTC 2022-01-14 05:02:57
Tagged date : UTC 2022-01-14 05:02:58

Text #32
ID : 34
Format : Timed Text
Codec ID : tx3g
Duration : 1 h 44 min
Bit rate mode : Variable
Bit rate : 71 b/s
Stream size : 54.8 KiB (0%)
Title : Slovak
Language : Slovak
Forced : No
Encoded date : UTC 2022-01-14 05:02:57
Tagged date : UTC 2022-01-14 05:02:58

Text #33
ID : 35
Format : Timed Text
Codec ID : tx3g
Duration : 1 h 44 min
Bit rate mode : Variable
Bit rate : 67 b/s
Stream size : 51.7 KiB (0%)
Title : Slovenian
Language : Slovenian
Forced : No
Encoded date : UTC 2022-01-14 05:02:57
Tagged date : UTC 2022-01-14 05:02:58

Text #34
ID : 36
Format : Timed Text
Codec ID : tx3g
Duration : 1 h 44 min
Bit rate mode : Variable
Bit rate : 76 b/s
Stream size : 58.6 KiB (0%)
Title : Spanish
Language : Spanish
Forced : No
Encoded date : UTC 2022-01-14 05:02:58
Tagged date : UTC 2022-01-14 05:02:58

Text #35
ID : 37
Format : Timed Text
Codec ID : tx3g
Duration : 1 h 44 min
Bit rate mode : Variable
Bit rate : 76 b/s
Stream size : 58.8 KiB (0%)
Title : Spanish-EU
Language : Spanish
Forced : No
Encoded date : UTC 2022-01-14 05:02:58
Tagged date : UTC 2022-01-14 05:02:58

Text #36
ID : 38
Format : Timed Text
Codec ID : tx3g
Duration : 1 h 44 min
Bit rate mode : Variable
Bit rate : 71 b/s
Stream size : 54.7 KiB (0%)
Title : Swedish
Language : Swedish
Forced : No
Encoded date : UTC 2022-01-14 05:02:58
Tagged date : UTC 2022-01-14 05:02:58

Text #37
ID : 39
Format : Timed Text
Codec ID : tx3g
Duration : 1 h 44 min
Bit rate mode : Variable
Bit rate : 256 b/s
Stream size : 197 KiB (0%)
Title : Tamil
Language : Tamil
Forced : No
Encoded date : UTC 2022-01-14 05:02:58
Tagged date : UTC 2022-01-14 05:02:58

Text #38
ID : 40
Format : Timed Text
Codec ID : tx3g
Duration : 1 h 44 min
Bit rate mode : Variable
Bit rate : 213 b/s
Stream size : 163 KiB (0%)
Title : Telugu
Language : Telugu
Forced : No
Encoded date : UTC 2022-01-14 05:02:58
Tagged date : UTC 2022-01-14 05:02:58

Text #39
ID : 41
Format : Timed Text
Codec ID : tx3g
Duration : 1 h 44 min
Bit rate mode : Variable
Bit rate : 188 b/s
Stream size : 145 KiB (0%)
Title : Thai
Language : Thai
Forced : No
Encoded date : UTC 2022-01-14 05:02:58
Tagged date : UTC 2022-01-14 05:02:58

Text #40
ID : 42
Format : Timed Text
Codec ID : tx3g
Duration : 1 h 44 min
Bit rate mode : Variable
Bit rate : 82 b/s
Stream size : 62.8 KiB (0%)
Title : Turkish
Language : Turkish
Forced : No
Encoded date : UTC 2022-01-14 05:02:58
Tagged date : UTC 2022-01-14 05:02:58

Text #41
ID : 43
Format : Timed Text
Codec ID : tx3g
Duration : 1 h 44 min
Bit rate mode : Variable
Bit rate : 112 b/s
Stream size : 86.2 KiB (0%)
Title : Ukrainian
Language : Ukrainian
Forced : No
Encoded date : UTC 2022-01-14 05:02:58
Tagged date : UTC 2022-01-14 05:02:58

Text #42
ID : 44
Format : Timed Text
Codec ID : tx3g
Duration : 1 h 44 min
Bit rate mode : Variable
Bit rate : 99 b/s
Stream size : 75.9 KiB (0%)
Title : Vietnamese
Language : Vietnamese
Forced : No
Encoded date : UTC 2022-01-14 05:02:58
Tagged date : UTC 2022-01-14 05:02:58

The.Tragedy.of.Macbeth.2021.2160p.ATVP.WEB-DL.DDP5.1.Atmos.HDR.HEVC-TEPES
General
Unique ID : 289181697637054517981514703620761565837 (0xD98E5E7C574F3121BA6AAAD9D96DBA8D)
Complete name : F:\torrent\The.Tragedy.of.Macbeth.2021.2160p.ATVP.WEB-DL.DDP5.1.Atmos.HDR.HEVC-TEPES\The.Tragedy.of.Macbeth.2021.2160p.ATVP.WEB-DL.DDP5.1.Atmos.HDR.HEVC-TEPES.mkv
Format : Matroska
Format version : Version 4
File size : 17.9 GiB
Duration : 1 h 45 min
Overall bit rate : 24.4 Mb/s
Writing application : mkvmerge v64.0.0 (‘Willows’) 64-bit
Writing library : libebml v1.4.2 + libmatroska v1.6.4

Video
ID : 1
Format : HEVC
Format/Info : High Efficiency Video Coding
Format profile : Main [email protected]@High
HDR format : SMPTE ST 2086, HDR10 compatible
Codec ID : V_MPEGH/ISO/HEVC
Duration : 1 h 45 min
Bit rate : 23.6 Mb/s
Width : 2 956 pixels
Height : 2 160 pixels
Display aspect ratio : 4:3
Frame rate mode : Constant
Frame rate : 23.976 FPS
Color space : YUV
Chroma subsampling : 4:2:0 (Type 2)
Bit depth : 10 bits
Bits/(Pixel*Frame) : 0.154
Stream size : 17.3 GiB (97%)
Language : English
Default : Yes
Forced : No
Color range : Limited
Color primaries : BT.2020
Transfer characteristics : PQ
Matrix coefficients : BT.2020 non-constant
Mastering display color primaries : Display P3
Mastering display luminance : min: 0.0050 cd/m2, max: 1000 cd/m2
Maximum Content Light Level : 760 cd/m2
Maximum Frame-Average Light Level : 207 cd/m2

Audio
ID : 2
Format : E-AC-3 JOC
Format/Info : Enhanced AC-3 with Joint Object Coding
Commercial name : Dolby Digital Plus with Dolby Atmos
Codec ID : A_EAC3
Duration : 1 h 45 min
Bit rate mode : Constant
Bit rate : 768 kb/s
Channel(s) : 6 channels
Channel layout : L R C LFE Ls Rs
Sampling rate : 48.0 kHz
Frame rate : 31.250 FPS (1536 SPF)
Compression mode : Lossy
Stream size : 578 MiB (3%)
Language : English
Service kind : Complete Main
Default : Yes
Forced : No
Complexity index : 16
Number of dynamic objects : 15
Bed channel count : 1 channel
Bed channel configuration : LFE

Text #1
ID : 3
Format : UTF-8
Codec ID : S_TEXT/UTF8
Codec ID/Info : UTF-8 Plain Text
Duration : 1 h 39 min
Bit rate : 75 b/s
Count of elements : 1346
Stream size : 55.4 KiB (0%)
Language : English
Default : No
Forced : No

Text #2
ID : 4
Format : UTF-8
Codec ID : S_TEXT/UTF8
Codec ID/Info : UTF-8 Plain Text
Duration : 1 h 41 min
Bit rate : 80 b/s
Count of elements : 1487
Stream size : 60.0 KiB (0%)
Title : SDH
Language : English
Default : No
Forced : No

Text #3
ID : 5
Format : UTF-8
Codec ID : S_TEXT/UTF8
Codec ID/Info : UTF-8 Plain Text
Duration : 1 h 44 min
Bit rate : 95 b/s
Count of elements : 1349
Stream size : 73.3 KiB (0%)
Language : Arabic
Default : No
Forced : No

Text #4
ID : 6
Format : UTF-8
Codec ID : S_TEXT/UTF8
Codec ID/Info : UTF-8 Plain Text
Duration : 1 h 44 min
Bit rate : 112 b/s
Count of elements : 1266
Stream size : 86.3 KiB (0%)
Language : Bulgarian
Default : No
Forced : No

Text #5
ID : 7
Format : UTF-8
Codec ID : S_TEXT/UTF8
Codec ID/Info : UTF-8 Plain Text
Duration : 1 h 44 min
Bit rate : 67 b/s
Count of elements : 1349
Stream size : 51.7 KiB (0%)
Title : Simplified
Language : Chinese
Default : No
Forced : No

Text #6
ID : 8
Format : UTF-8
Codec ID : S_TEXT/UTF8
Codec ID/Info : UTF-8 Plain Text
Duration : 1 h 44 min
Bit rate : 61 b/s
Count of elements : 1350
Stream size : 47.0 KiB (0%)
Title : Traditional
Language : Chinese
Default : No
Forced : No

Text #7
ID : 9
Format : UTF-8
Codec ID : S_TEXT/UTF8
Codec ID/Info : UTF-8 Plain Text
Duration : 1 h 44 min
Bit rate : 62 b/s
Count of elements : 1279
Stream size : 48.0 KiB (0%)
Language : Czech
Default : No
Forced : No

Text #8
ID : 10
Format : UTF-8
Codec ID : S_TEXT/UTF8
Codec ID/Info : UTF-8 Plain Text
Duration : 1 h 44 min
Bit rate : 69 b/s
Count of elements : 1281
Stream size : 53.1 KiB (0%)
Language : Danish
Default : No
Forced : No

Text #9
ID : 11
Format : UTF-8
Codec ID : S_TEXT/UTF8
Codec ID/Info : UTF-8 Plain Text
Duration : 1 h 44 min
Bit rate : 71 b/s
Count of elements : 1354
Stream size : 54.7 KiB (0%)
Language : German
Default : No
Forced : No

Text #10
ID : 12
Format : UTF-8
Codec ID : S_TEXT/UTF8
Codec ID/Info : UTF-8 Plain Text
Duration : 1 h 44 min
Bit rate : 125 b/s
Count of elements : 1336
Stream size : 95.8 KiB (0%)
Language : Greek
Default : No
Forced : No

Text #11
ID : 13
Format : UTF-8
Codec ID : S_TEXT/UTF8
Codec ID/Info : UTF-8 Plain Text
Duration : 1 h 44 min
Bit rate : 70 b/s
Count of elements : 1358
Stream size : 53.6 KiB (0%)
Title : Latin American
Language : Spanish
Default : No
Forced : No

Text #12
ID : 14
Format : UTF-8
Codec ID : S_TEXT/UTF8
Codec ID/Info : UTF-8 Plain Text
Duration : 1 h 44 min
Bit rate : 70 b/s
Count of elements : 1356
Stream size : 53.7 KiB (0%)
Language : Spanish
Default : No
Forced : No

Text #13
ID : 15
Format : UTF-8
Codec ID : S_TEXT/UTF8
Codec ID/Info : UTF-8 Plain Text
Duration : 1 h 44 min
Bit rate : 63 b/s
Count of elements : 1242
Stream size : 48.7 KiB (0%)
Language : Estonian
Default : No
Forced : No

Text #14
ID : 16
Format : UTF-8
Codec ID : S_TEXT/UTF8
Codec ID/Info : UTF-8 Plain Text
Duration : 1 h 44 min
Bit rate : 67 b/s
Count of elements : 1338
Stream size : 51.6 KiB (0%)
Language : Finnish
Default : No
Forced : No

Text #15
ID : 17
Format : UTF-8
Codec ID : S_TEXT/UTF8
Codec ID/Info : UTF-8 Plain Text
Duration : 1 h 44 min
Bit rate : 74 b/s
Count of elements : 1539
Stream size : 56.7 KiB (0%)
Title : Canadian
Language : French
Default : No
Forced : No

Text #16
ID : 18
Format : UTF-8
Codec ID : S_TEXT/UTF8
Codec ID/Info : UTF-8 Plain Text
Duration : 1 h 44 min
Bit rate : 74 b/s
Count of elements : 1539
Stream size : 56.7 KiB (0%)
Language : French
Default : No
Forced : No

Text #17
ID : 19
Format : UTF-8
Codec ID : S_TEXT/UTF8
Codec ID/Info : UTF-8 Plain Text
Duration : 1 h 44 min
Bit rate : 89 b/s
Count of elements : 1350
Stream size : 68.3 KiB (0%)
Language : Hebrew
Default : No
Forced : No

Text #18
ID : 20
Format : UTF-8
Codec ID : S_TEXT/UTF8
Codec ID/Info : UTF-8 Plain Text
Duration : 1 h 44 min
Bit rate : 209 b/s
Count of elements : 1350
Stream size : 160 KiB (0%)
Language : Hindi
Default : No
Forced : No

Text #19
ID : 21
Format : UTF-8
Codec ID : S_TEXT/UTF8
Codec ID/Info : UTF-8 Plain Text
Duration : 1 h 44 min
Bit rate : 72 b/s
Count of elements : 1312
Stream size : 55.4 KiB (0%)
Language : Hungarian
Default : No
Forced : No

Text #20
ID : 22
Format : UTF-8
Codec ID : S_TEXT/UTF8
Codec ID/Info : UTF-8 Plain Text
Duration : 1 h 44 min
Bit rate : 76 b/s
Count of elements : 1350
Stream size : 58.5 KiB (0%)
Language : Indonesian
Default : No
Forced : No

Text #21
ID : 23
Format : UTF-8
Codec ID : S_TEXT/UTF8
Codec ID/Info : UTF-8 Plain Text
Duration : 1 h 44 min
Bit rate : 75 b/s
Count of elements : 1352
Stream size : 57.4 KiB (0%)
Language : Italian
Default : No
Forced : No

Text #22
ID : 24
Format : UTF-8
Codec ID : S_TEXT/UTF8
Codec ID/Info : UTF-8 Plain Text
Duration : 1 h 44 min
Bit rate : 65 b/s
Count of elements : 1202
Stream size : 50.2 KiB (0%)
Language : Japanese
Default : No
Forced : No

Text #23
ID : 25
Format : UTF-8
Codec ID : S_TEXT/UTF8
Codec ID/Info : UTF-8 Plain Text
Duration : 1 h 44 min
Bit rate : 82 b/s
Count of elements : 1350
Stream size : 63.1 KiB (0%)
Language : Korean
Default : No
Forced : No

Text #24
ID : 26
Format : UTF-8
Codec ID : S_TEXT/UTF8
Codec ID/Info : UTF-8 Plain Text
Duration : 1 h 44 min
Bit rate : 72 b/s
Count of elements : 1349
Stream size : 55.2 KiB (0%)
Language : Lithuanian
Default : No
Forced : No

Text #25
ID : 27
Format : UTF-8
Codec ID : S_TEXT/UTF8
Codec ID/Info : UTF-8 Plain Text
Duration : 1 h 44 min
Bit rate : 71 b/s
Count of elements : 1336
Stream size : 54.4 KiB (0%)
Language : Latvian
Default : No
Forced : No

Text #26
ID : 28
Format : UTF-8
Codec ID : S_TEXT/UTF8
Codec ID/Info : UTF-8 Plain Text
Duration : 1 h 44 min
Bit rate : 70 b/s
Count of elements : 1350
Stream size : 54.0 KiB (0%)
Language : Malay
Default : No
Forced : No

Text #27
ID : 29
Format : UTF-8
Codec ID : S_TEXT/UTF8
Codec ID/Info : UTF-8 Plain Text
Duration : 1 h 44 min
Bit rate : 68 b/s
Count of elements : 1211
Stream size : 52.0 KiB (0%)
Language : Dutch
Default : No
Forced : No

Text #28
ID : 30
Format : UTF-8
Codec ID : S_TEXT/UTF8
Codec ID/Info : UTF-8 Plain Text
Duration : 1 h 44 min
Bit rate : 65 b/s
Count of elements : 1305
Stream size : 50.4 KiB (0%)
Language : Norwegian
Default : No
Forced : No

Text #29
ID : 31
Format : UTF-8
Codec ID : S_TEXT/UTF8
Codec ID/Info : UTF-8 Plain Text
Duration : 1 h 44 min
Bit rate : 71 b/s
Count of elements : 1350
Stream size : 55.0 KiB (0%)
Language : Polish
Default : No
Forced : No

Text #30
ID : 32
Format : UTF-8
Codec ID : S_TEXT/UTF8
Codec ID/Info : UTF-8 Plain Text
Duration : 1 h 44 min
Bit rate : 73 b/s
Count of elements : 1351
Stream size : 55.9 KiB (0%)
Language : Portuguese
Default : No
Forced : No

Text #31
ID : 33
Format : UTF-8
Codec ID : S_TEXT/UTF8
Codec ID/Info : UTF-8 Plain Text
Duration : 1 h 44 min
Bit rate : 73 b/s
Count of elements : 1287
Stream size : 56.4 KiB (0%)
Title : Brazilian
Language : Portuguese
Default : No
Forced : No

Text #32
ID : 34
Format : UTF-8
Codec ID : S_TEXT/UTF8
Codec ID/Info : UTF-8 Plain Text
Duration : 1 h 44 min
Bit rate : 106 b/s
Count of elements : 1369
Stream size : 81.1 KiB (0%)
Language : Russian
Default : No
Forced : No

Text #33
ID : 35
Format : UTF-8
Codec ID : S_TEXT/UTF8
Codec ID/Info : UTF-8 Plain Text
Duration : 1 h 44 min
Bit rate : 65 b/s
Count of elements : 1342
Stream size : 49.8 KiB (0%)
Language : Slovak
Default : No
Forced : No

Text #34
ID : 36
Format : UTF-8
Codec ID : S_TEXT/UTF8
Codec ID/Info : UTF-8 Plain Text
Duration : 1 h 44 min
Bit rate : 62 b/s
Count of elements : 1173
Stream size : 47.6 KiB (0%)
Language : Slovenian
Default : No
Forced : No

Text #35
ID : 37
Format : UTF-8
Codec ID : S_TEXT/UTF8
Codec ID/Info : UTF-8 Plain Text
Duration : 1 h 44 min
Bit rate : 65 b/s
Count of elements : 1267
Stream size : 49.9 KiB (0%)
Language : Swedish
Default : No
Forced : No

Text #36
ID : 38
Format : UTF-8
Codec ID : S_TEXT/UTF8
Codec ID/Info : UTF-8 Plain Text
Duration : 1 h 44 min
Bit rate : 252 b/s
Count of elements : 1350
Stream size : 193 KiB (0%)
Language : Tamil
Default : No
Forced : No

Text #37
ID : 39
Format : UTF-8
Codec ID : S_TEXT/UTF8
Codec ID/Info : UTF-8 Plain Text
Duration : 1 h 44 min
Bit rate : 207 b/s
Count of elements : 1350
Stream size : 159 KiB (0%)
Language : Telugu
Default : No
Forced : No

Text #38
ID : 40
Format : UTF-8
Codec ID : S_TEXT/UTF8
Codec ID/Info : UTF-8 Plain Text
Duration : 1 h 44 min
Bit rate : 183 b/s
Count of elements : 1349
Stream size : 140 KiB (0%)
Language : Thai
Default : No
Forced : No

Text #39
ID : 41
Format : UTF-8
Codec ID : S_TEXT/UTF8
Codec ID/Info : UTF-8 Plain Text
Duration : 1 h 44 min
Bit rate : 75 b/s
Count of elements : 1349
Stream size : 57.7 KiB (0%)
Language : Turkish
Default : No
Forced : No

Text #40
ID : 42
Format : UTF-8
Codec ID : S_TEXT/UTF8
Codec ID/Info : UTF-8 Plain Text
Duration : 1 h 44 min
Bit rate : 106 b/s
Count of elements : 1349
Stream size : 81.1 KiB (0%)
Language : Ukrainian
Default : No
Forced : No

Text #41
ID : 43
Format : UTF-8
Codec ID : S_TEXT/UTF8
Codec ID/Info : UTF-8 Plain Text
Duration : 1 h 44 min
Bit rate : 92 b/s
Count of elements : 1351
Stream size : 70.8 KiB (0%)
Language : Vietnamese
Default : No
Forced : No

Text #42
ID : 44
Format : UTF-8
Codec ID : S_TEXT/UTF8
Codec ID/Info : UTF-8 Plain Text
Duration : 1 h 44 min
Bit rate : 66 b/s
Count of elements : 1350
Stream size : 50.8 KiB (0%)
Title : Cantonese
Language : Chinese
Default : No
Forced : No

The.Tragedy.of.Macbeth.2021.1080p.ATVP.WEB-DL.DDP5.1.Atmos.H.264-TEPES

General
Unique ID : 25741655374157934440873421590876955966 (0x135DA998F72CE5A2BBD3D6938C00A53E)
Complete name : The.Tragedy.of.Macbeth.2021.1080p.ATVP.WEB-DL.DDP5.1.Atmos.H.264-TEPES.mkv
Format : Matroska
Format version : Version 4
File size : 7.89 GiB
Duration : 1 h 45 min
Overall bit rate : 10.7 Mb/s
Writing application : mkvmerge v64.0.0 (‘Willows’) 64-bit
Writing library : libebml v1.4.2 + libmatroska v1.6.4

Video
ID : 1
Format : AVC
Format/Info : Advanced Video Codec
Format profile : [email protected]
Format settings : CABAC / 5 Ref Frames
Format settings, CABAC : Yes
Format settings, Reference frames : 5 frames
Codec ID : V_MPEG4/ISO/AVC
Duration : 1 h 45 min
Bit rate : 9 963 kb/s
Width : 1 478 pixels
Height : 1 080 pixels
Display aspect ratio : 4:3
Frame rate mode : Constant
Frame rate : 23.976 (24000/1001) FPS
Color space : YUV
Chroma subsampling : 4:2:0
Bit depth : 8 bits
Scan type : Progressive
Bits/(Pixel*Frame) : 0.260
Stream size : 7.32 GiB (93%)
Language : English
Default : Yes
Forced : No
Color range : Limited
Color primaries : BT.709
Transfer characteristics : BT.709
Matrix coefficients : BT.709

Audio
ID : 2
Format : E-AC-3 JOC
Format/Info : Enhanced AC-3 with Joint Object Coding
Commercial name : Dolby Digital Plus with Dolby Atmos
Codec ID : A_EAC3
Duration : 1 h 45 min
Bit rate mode : Constant
Bit rate : 768 kb/s
Channel(s) : 6 channels
Channel layout : L R C LFE Ls Rs
Sampling rate : 48.0 kHz
Frame rate : 31.250 FPS (1536 SPF)
Compression mode : Lossy
Stream size : 578 MiB (7%)
Language : English
Service kind : Complete Main
Default : Yes
Forced : No
Complexity index : 16
Number of dynamic objects : 15
Bed channel count : 1 channel
Bed channel configuration : LFE

Text #1
ID : 3
Format : UTF-8
Codec ID : S_TEXT/UTF8
Codec ID/Info : UTF-8 Plain Text
Duration : 1 h 39 min
Bit rate : 75 b/s
Count of elements : 1346
Stream size : 55.4 KiB (0%)
Language : English
Default : No
Forced : No

Text #2
ID : 4
Format : UTF-8
Codec ID : S_TEXT/UTF8
Codec ID/Info : UTF-8 Plain Text
Duration : 1 h 41 min
Bit rate : 80 b/s
Count of elements : 1487
Stream size : 60.0 KiB (0%)
Title : SDH
Language : English
Default : No
Forced : No

Text #3
ID : 5
Format : UTF-8
Codec ID : S_TEXT/UTF8
Codec ID/Info : UTF-8 Plain Text
Duration : 1 h 44 min
Bit rate : 95 b/s
Count of elements : 1349
Stream size : 73.3 KiB (0%)
Language : Arabic
Default : No
Forced : No

Text #4
ID : 6
Format : UTF-8
Codec ID : S_TEXT/UTF8
Codec ID/Info : UTF-8 Plain Text
Duration : 1 h 44 min
Bit rate : 112 b/s
Count of elements : 1266
Stream size : 86.3 KiB (0%)
Language : Bulgarian
Default : No
Forced : No

Text #5
ID : 7
Format : UTF-8
Codec ID : S_TEXT/UTF8
Codec ID/Info : UTF-8 Plain Text
Duration : 1 h 44 min
Bit rate : 67 b/s
Count of elements : 1349
Stream size : 51.7 KiB (0%)
Title : Simplified
Language : Chinese
Default : No
Forced : No

Text #6
ID : 8
Format : UTF-8
Codec ID : S_TEXT/UTF8
Codec ID/Info : UTF-8 Plain Text
Duration : 1 h 44 min
Bit rate : 61 b/s
Count of elements : 1350
Stream size : 47.0 KiB (0%)
Title : Traditional
Language : Chinese
Default : No
Forced : No

Text #7
ID : 9
Format : UTF-8
Codec ID : S_TEXT/UTF8
Codec ID/Info : UTF-8 Plain Text
Duration : 1 h 44 min
Bit rate : 62 b/s
Count of elements : 1279
Stream size : 48.0 KiB (0%)
Language : Czech
Default : No
Forced : No

Text #8
ID : 10
Format : UTF-8
Codec ID : S_TEXT/UTF8
Codec ID/Info : UTF-8 Plain Text
Duration : 1 h 44 min
Bit rate : 69 b/s
Count of elements : 1281
Stream size : 53.1 KiB (0%)
Language : Danish
Default : No
Forced : No

Text #9
ID : 11
Format : UTF-8
Codec ID : S_TEXT/UTF8
Codec ID/Info : UTF-8 Plain Text
Duration : 1 h 44 min
Bit rate : 71 b/s
Count of elements : 1354
Stream size : 54.7 KiB (0%)
Language : German
Default : No
Forced : No

Text #10
ID : 12
Format : UTF-8
Codec ID : S_TEXT/UTF8
Codec ID/Info : UTF-8 Plain Text
Duration : 1 h 44 min
Bit rate : 125 b/s
Count of elements : 1336
Stream size : 95.8 KiB (0%)
Language : Greek
Default : No
Forced : No

Text #11
ID : 13
Format : UTF-8
Codec ID : S_TEXT/UTF8
Codec ID/Info : UTF-8 Plain Text
Duration : 1 h 44 min
Bit rate : 70 b/s
Count of elements : 1358
Stream size : 53.6 KiB (0%)
Title : Latin American
Language : Spanish
Default : No
Forced : No

Text #12
ID : 14
Format : UTF-8
Codec ID : S_TEXT/UTF8
Codec ID/Info : UTF-8 Plain Text
Duration : 1 h 44 min
Bit rate : 70 b/s
Count of elements : 1356
Stream size : 53.7 KiB (0%)
Language : Spanish
Default : No
Forced : No

Text #13
ID : 15
Format : UTF-8
Codec ID : S_TEXT/UTF8
Codec ID/Info : UTF-8 Plain Text
Duration : 1 h 44 min
Bit rate : 63 b/s
Count of elements : 1242
Stream size : 48.7 KiB (0%)
Language : Estonian
Default : No
Forced : No

Text #14
ID : 16
Format : UTF-8
Codec ID : S_TEXT/UTF8
Codec ID/Info : UTF-8 Plain Text
Duration : 1 h 44 min
Bit rate : 67 b/s
Count of elements : 1338
Stream size : 51.6 KiB (0%)
Language : Finnish
Default : No
Forced : No

Text #15
ID : 17
Format : UTF-8
Codec ID : S_TEXT/UTF8
Codec ID/Info : UTF-8 Plain Text
Duration : 1 h 44 min
Bit rate : 74 b/s
Count of elements : 1539
Stream size : 56.7 KiB (0%)
Title : Canadian
Language : French
Default : No
Forced : No

Text #16
ID : 18
Format : UTF-8
Codec ID : S_TEXT/UTF8
Codec ID/Info : UTF-8 Plain Text
Duration : 1 h 44 min
Bit rate : 74 b/s
Count of elements : 1539
Stream size : 56.7 KiB (0%)
Language : French
Default : No
Forced : No

Text #17
ID : 19
Format : UTF-8
Codec ID : S_TEXT/UTF8
Codec ID/Info : UTF-8 Plain Text
Duration : 1 h 44 min
Bit rate : 89 b/s
Count of elements : 1350
Stream size : 68.3 KiB (0%)
Language : Hebrew
Default : No
Forced : No

Text #18
ID : 20
Format : UTF-8
Codec ID : S_TEXT/UTF8
Codec ID/Info : UTF-8 Plain Text
Duration : 1 h 44 min
Bit rate : 209 b/s
Count of elements : 1350
Stream size : 160 KiB (0%)
Language : Hindi
Default : No
Forced : No

Text #19
ID : 21
Format : UTF-8
Codec ID : S_TEXT/UTF8
Codec ID/Info : UTF-8 Plain Text
Duration : 1 h 44 min
Bit rate : 72 b/s
Count of elements : 1312
Stream size : 55.4 KiB (0%)
Language : Hungarian
Default : No
Forced : No

Text #20
ID : 22
Format : UTF-8
Codec ID : S_TEXT/UTF8
Codec ID/Info : UTF-8 Plain Text
Duration : 1 h 44 min
Bit rate : 76 b/s
Count of elements : 1350
Stream size : 58.5 KiB (0%)
Language : Indonesian
Default : No
Forced : No

Text #21
ID : 23
Format : UTF-8
Codec ID : S_TEXT/UTF8
Codec ID/Info : UTF-8 Plain Text
Duration : 1 h 44 min
Bit rate : 75 b/s
Count of elements : 1352
Stream size : 57.4 KiB (0%)
Language : Italian
Default : No
Forced : No

Text #22
ID : 24
Format : UTF-8
Codec ID : S_TEXT/UTF8
Codec ID/Info : UTF-8 Plain Text
Duration : 1 h 44 min
Bit rate : 65 b/s
Count of elements : 1202
Stream size : 50.2 KiB (0%)
Language : Japanese
Default : No
Forced : No

Text #23
ID : 25
Format : UTF-8
Codec ID : S_TEXT/UTF8
Codec ID/Info : UTF-8 Plain Text
Duration : 1 h 44 min
Bit rate : 82 b/s
Count of elements : 1350
Stream size : 63.1 KiB (0%)
Language : Korean
Default : No
Forced : No

Text #24
ID : 26
Format : UTF-8
Codec ID : S_TEXT/UTF8
Codec ID/Info : UTF-8 Plain Text
Duration : 1 h 44 min
Bit rate : 72 b/s
Count of elements : 1349
Stream size : 55.2 KiB (0%)
Language : Lithuanian
Default : No
Forced : No

Text #25
ID : 27
Format : UTF-8
Codec ID : S_TEXT/UTF8
Codec ID/Info : UTF-8 Plain Text
Duration : 1 h 44 min
Bit rate : 71 b/s
Count of elements : 1336
Stream size : 54.4 KiB (0%)
Language : Latvian
Default : No
Forced : No

Text #26
ID : 28
Format : UTF-8
Codec ID : S_TEXT/UTF8
Codec ID/Info : UTF-8 Plain Text
Duration : 1 h 44 min
Bit rate : 70 b/s
Count of elements : 1350
Stream size : 54.0 KiB (0%)
Language : Malay
Default : No
Forced : No

Text #27
ID : 29
Format : UTF-8
Codec ID : S_TEXT/UTF8
Codec ID/Info : UTF-8 Plain Text
Duration : 1 h 44 min
Bit rate : 68 b/s
Count of elements : 1211
Stream size : 52.0 KiB (0%)
Language : Dutch
Default : No
Forced : No

Text #28
ID : 30
Format : UTF-8
Codec ID : S_TEXT/UTF8
Codec ID/Info : UTF-8 Plain Text
Duration : 1 h 44 min
Bit rate : 65 b/s
Count of elements : 1305
Stream size : 50.4 KiB (0%)
Language : Norwegian
Default : No
Forced : No

Text #29
ID : 31
Format : UTF-8
Codec ID : S_TEXT/UTF8
Codec ID/Info : UTF-8 Plain Text
Duration : 1 h 44 min
Bit rate : 71 b/s
Count of elements : 1350
Stream size : 55.0 KiB (0%)
Language : Polish
Default : No
Forced : No

Text #30
ID : 32
Format : UTF-8
Codec ID : S_TEXT/UTF8
Codec ID/Info : UTF-8 Plain Text
Duration : 1 h 44 min
Bit rate : 73 b/s
Count of elements : 1351
Stream size : 55.9 KiB (0%)
Language : Portuguese
Default : No
Forced : No

Text #31
ID : 33
Format : UTF-8
Codec ID : S_TEXT/UTF8
Codec ID/Info : UTF-8 Plain Text
Duration : 1 h 44 min
Bit rate : 73 b/s
Count of elements : 1287
Stream size : 56.4 KiB (0%)
Title : Brazilian
Language : Portuguese
Default : No
Forced : No

Text #32
ID : 34
Format : UTF-8
Codec ID : S_TEXT/UTF8
Codec ID/Info : UTF-8 Plain Text
Duration : 1 h 44 min
Bit rate : 106 b/s
Count of elements : 1369
Stream size : 81.1 KiB (0%)
Language : Russian
Default : No
Forced : No

Text #33
ID : 35
Format : UTF-8
Codec ID : S_TEXT/UTF8
Codec ID/Info : UTF-8 Plain Text
Duration : 1 h 44 min
Bit rate : 65 b/s
Count of elements : 1342
Stream size : 49.8 KiB (0%)
Language : Slovak
Default : No
Forced : No

Text #34
ID : 36
Format : UTF-8
Codec ID : S_TEXT/UTF8
Codec ID/Info : UTF-8 Plain Text
Duration : 1 h 44 min
Bit rate : 62 b/s
Count of elements : 1173
Stream size : 47.6 KiB (0%)
Language : Slovenian
Default : No
Forced : No

Text #35
ID : 37
Format : UTF-8
Codec ID : S_TEXT/UTF8
Codec ID/Info : UTF-8 Plain Text
Duration : 1 h 44 min
Bit rate : 65 b/s
Count of elements : 1267
Stream size : 49.9 KiB (0%)
Language : Swedish
Default : No
Forced : No

Text #36
ID : 38
Format : UTF-8
Codec ID : S_TEXT/UTF8
Codec ID/Info : UTF-8 Plain Text
Duration : 1 h 44 min
Bit rate : 252 b/s
Count of elements : 1350
Stream size : 193 KiB (0%)
Language : Tamil
Default : No
Forced : No

Text #37
ID : 39
Format : UTF-8
Codec ID : S_TEXT/UTF8
Codec ID/Info : UTF-8 Plain Text
Duration : 1 h 44 min
Bit rate : 207 b/s
Count of elements : 1350
Stream size : 159 KiB (0%)
Language : Telugu
Default : No
Forced : No

Text #38
ID : 40
Format : UTF-8
Codec ID : S_TEXT/UTF8
Codec ID/Info : UTF-8 Plain Text
Duration : 1 h 44 min
Bit rate : 183 b/s
Count of elements : 1349
Stream size : 140 KiB (0%)
Language : Thai
Default : No
Forced : No

Text #39
ID : 41
Format : UTF-8
Codec ID : S_TEXT/UTF8
Codec ID/Info : UTF-8 Plain Text
Duration : 1 h 44 min
Bit rate : 75 b/s
Count of elements : 1349
Stream size : 57.7 KiB (0%)
Language : Turkish
Default : No
Forced : No

Text #40
ID : 42
Format : UTF-8
Codec ID : S_TEXT/UTF8
Codec ID/Info : UTF-8 Plain Text
Duration : 1 h 44 min
Bit rate : 106 b/s
Count of elements : 1349
Stream size : 81.1 KiB (0%)
Language : Ukrainian
Default : No
Forced : No

Text #41
ID : 43
Format : UTF-8
Codec ID : S_TEXT/UTF8
Codec ID/Info : UTF-8 Plain Text
Duration : 1 h 44 min
Bit rate : 92 b/s
Count of elements : 1351
Stream size : 70.8 KiB (0%)
Language : Vietnamese
Default : No
Forced : No

Text #42
ID : 44
Format : UTF-8
Codec ID : S_TEXT/UTF8
Codec ID/Info : UTF-8 Plain Text
Duration : 1 h 44 min
Bit rate : 66 b/s
Count of elements : 1350
Stream size : 50.8 KiB (0%)
Title : Cantonese
Language : Chinese
Default : No
Forced : No

The.Tragedy.Of.Macbeth.2021.1080p.atvp.webrip.x265-BvS

General
Unique ID : 72350051825891355115223812547371901560 (0x366E1CF604C01C08B4544D99232CA278)
Complete name : The.Tragedy.Of.Macbeth.2021.1080p.atvp.webrip.x265-BvS.mkv
Format : Matroska
Format version : Version 4
File size : 930 MiB
Duration : 1 h 45 min
Overall bit rate : 1 237 kb/s
Movie name : BvSRips
Encoded date : UTC 2022-01-14 07:07:36
Writing application : mkvmerge v63.0.0 (‘Everything’) 64-bit
Writing library : libebml v1.4.2 + libmatroska v1.6.4

Video
ID : 1
Format : HEVC
Format/Info : High Efficiency Video Coding
Format profile : [email protected]@Main
Codec ID : V_MPEGH/ISO/HEVC
Duration : 1 h 45 min
Bit rate : 979 kb/s
Width : 1 478 pixels
Height : 1 080 pixels
Display aspect ratio : 4:3
Frame rate mode : Constant
Frame rate : 23.976 (24000/1001) FPS
Color space : YUV
Chroma subsampling : 4:2:0
Bit depth : 8 bits
Bits/(Pixel*Frame) : 0.026
Stream size : 736 MiB (79%)
Writing library : x265 3.5+1-f0c1022b6:[Windows][GCC 10.2.0][64 bit] 8bit+10bit+12bit
Encoding settings : cpuid=1111039 / frame-threads=4 / numa-pools=16 / wpp / no-pmode / no-pme / psnr / no-ssim / log-level=2 / input-csp=1 / input-res=1478×1080 / interlace=0 / total-frames=0 / level-idc=0 / high-tier=1 / uhd-bd=0 / ref=3 / no-allow-non-conformance / no-repeat-headers / annexb / no-aud / no-hrd / info / hash=0 / no-temporal-layers / open-gop / min-keyint=24 / keyint=240 / gop-lookahead=0 / bframes=4 / b-adapt=0 / b-pyramid / bframe-bias=0 / rc-lookahead=15 / lookahead-slices=6 / scenecut=40 / hist-scenecut=0 / radl=0 / no-splice / no-intra-refresh / ctu=64 / min-cu-size=8 / no-rect / no-amp / max-tu-size=32 / tu-inter-depth=1 / tu-intra-depth=1 / limit-tu=0 / rdoq-level=0 / dynamic-rd=0.00 / no-ssim-rd / signhide / no-tskip / nr-intra=0 / nr-inter=0 / no-constrained-intra / strong-intra-smoothing / max-merge=2 / limit-refs=3 / no-limit-modes / me=1 / subme=2 / merange=57 / temporal-mvp / no-frame-dup / no-hme / weightp / no-weightb / no-analyze-src-pics / deblock=0:0 / sao / no-sao-non-deblock / rd=2 / selective-sao=4 / no-early-skip / rskip / fast-intra / no-tskip-fast / no-cu-lossless / no-b-intra / no-splitrd-skip / rdpenalty=0 / psy-rd=0.00 / psy-rdoq=0.00 / no-rd-refine / no-lossless / cbqpoffs=0 / crqpoffs=0 / rc=crf / crf=22.0 / qcomp=0.60 / qpstep=4 / stats-write=0 / stats-read=0 / ipratio=1.40 / pbratio=1.30 / aq-mode=2 / aq-strength=0.00 / cutree / zone-count=0 / no-strict-cbr / qg-size=32 / no-rc-grain / qpmax=69 / qpmin=0 / no-const-vbv / sar=1 / overscan=0 / videoformat=5 / range=0 / colorprim=1 / transfer=1 / colormatrix=1 / chromaloc=0 / display-window=0 / cll=0,0 / min-luma=0 / max-luma=255 / log2-max-poc-lsb=8 / vui-timing-info / vui-hrd-info / slices=1 / no-opt-qp-pps / no-opt-ref-list-length-pps / no-multi-pass-opt-rps / scenecut-bias=0.05 / hist-threshold=0.03 / no-opt-cu-delta-qp / no-aq-motion / no-hdr10 / no-hdr10-opt / no-dhdr10-opt / no-idr-recovery-sei / analysis-reuse-level=0 / analysis-save-reuse-level=0 / analysis-load-reuse-level=0 / scale-factor=0 / refine-intra=0 / refine-inter=0 / refine-mv=1 / refine-ctu-distortion=0 / no-limit-sao / ctu-info=0 / no-lowpass-dct / refine-analysis-type=0 / copy-pic=1 / max-ausize-factor=1.0 / no-dynamic-refine / no-single-sei / no-hevc-aq / no-svt / no-field / qp-adaptation-range=1.00 / scenecut-aware-qp=0conformance-window-offsets / right=0 / bottom=0 / decoder-max-rate=0 / no-vbv-live-multi-pass
Default : Yes
Forced : No
Color range : Limited
Color primaries : BT.709
Transfer characteristics : BT.709
Matrix coefficients : BT.709

Audio
ID : 2
Format : AAC LC SBR
Format/Info : Advanced Audio Codec Low Complexity with Spectral Band Replication
Commercial name : HE-AAC
Format settings : NBC
Codec ID : A_AAC-5
Duration : 1 h 45 min
Bit rate : 256 kb/s
Channel(s) : 6 channels
Channel layout : C L R Ls Rs LFE
Sampling rate : 48.0 kHz
Frame rate : 23.438 FPS (2048 SPF)
Compression mode : Lossy
Delay relative to video : -105 ms
Stream size : 193 MiB (21%)
Language : English
Default : Yes
Forced : No

Text #1
ID : 3
Format : UTF-8
Codec ID : S_TEXT/UTF8
Codec ID/Info : UTF-8 Plain Text
Duration : 1 h 39 min
Bit rate : 75 b/s
Count of elements : 1346
Stream size : 55.4 KiB (0%)
Language : English
Default : Yes
Forced : No

Text #2
ID : 4
Format : UTF-8
Codec ID : S_TEXT/UTF8
Codec ID/Info : UTF-8 Plain Text
Duration : 1 h 44 min
Bit rate : 71 b/s
Count of elements : 1354
Stream size : 54.7 KiB (0%)
Language : German
Default : Yes
Forced : No

Text #3
ID : 5
Format : UTF-8
Codec ID : S_TEXT/UTF8
Codec ID/Info : UTF-8 Plain Text
Duration : 1 h 44 min
Bit rate : 70 b/s
Count of elements : 1356
Stream size : 53.7 KiB (0%)
Language : Spanish
Default : Yes
Forced : No

Text #4
ID : 6
Format : UTF-8
Codec ID : S_TEXT/UTF8
Codec ID/Info : UTF-8 Plain Text
Duration : 1 h 44 min
Bit rate : 74 b/s
Count of elements : 1539
Stream size : 56.7 KiB (0%)
Language : French
Default : Yes
Forced : No

Text #5
ID : 7
Format : ASS
Codec ID : S_TEXT/ASS
Codec ID/Info : Advanced Sub Station Alpha
Duration : 4 s 500 ms
Bit rate : 149 b/s
Count of elements : 1
Compression mode : Lossless
Stream size : 84.0 Bytes (0%)
Default : Yes
Forced : Yes

 

Leave a Reply

Your email address will not be published. Required fields are marked *