The Thing (1982) | 720p & 1080p & 2160p BluRay x265-BvS

Members of an American scientific research outpost in Antarctica find themselves battling a parasitic alien organism capable of perfectly imitating its victims. They soon discover that this task will be harder than they thought, as they don’t know which members of the team have already been assimilated and their paranoia threatens to tear them apart.

Links: iMDB | Trailer

Note: In English with English/French/Spanish/German Selectable Subtitles

DOWNLOAD

VIP

This content is reserved for registered users. BUY A VIP MEMBERSHIP HERE and login to be able to see it.

FREE

  • The.Thing.1982.UHD.BluRay.2160p.DTS-X.7.1.HEVC.REMUX-FraMeSToR – 71.30GB (ONLY MEGA VIP)

NFO

1080p.x265-BvS

General
Unique ID : 166426528555305895147640488044906345863 (0x7D34955F80BBE1DFAD6069B9F852F587)
Complete name : D:\HDNLEN1102\The.Thing.1982.UHD.BluRay.2160p.DTS-X.7.1.HEVC.REMUX-FraMeSToR\The.Thing.1982.UHD.BluRay.2160p.DTS-X.7.1.HEVC.REMUX-FraMeSToR.mkv
Format : Matroska
Format version : Version 4
File size : 71.3 GiB
Duration : 1 h 48 min
Overall bit rate mode : Variable
Overall bit rate : 93.9 Mb/s
Movie name : The Thing (1982)
Encoded date : UTC 2021-09-08 21:49:36
Writing application : mkvmerge v61.0.0 (‘So’) 64-bit
Writing library : libebml v1.4.2 + libmatroska v1.6.4
IMDB : tt0084787
TMDB : movie/1091

Video
ID : 1
Format : HEVC
Format/Info : High Efficiency Video Coding
Format profile : Main [email protected]@High
HDR format : SMPTE ST 2086, HDR10 compatible
Codec ID : V_MPEGH/ISO/HEVC
Duration : 1 h 48 min
Bit rate : 85.5 Mb/s
Width : 3 840 pixels
Height : 2 160 pixels
Display aspect ratio : 16:9
Frame rate mode : Constant
Frame rate : 23.976 (24000/1001) FPS
Color space : YUV
Chroma subsampling : 4:2:0 (Type 2)
Bit depth : 10 bits
Bits/(Pixel*Frame) : 0.430
Stream size : 64.9 GiB (91%)
Default : Yes
Forced : No
Color range : Limited
Color primaries : BT.2020
Transfer characteristics : PQ
Matrix coefficients : BT.2020 non-constant
Mastering display color primaries : Display P3
Mastering display luminance : min: 0.0050 cd/m2, max: 1000 cd/m2
Maximum Content Light Level : 1000 cd/m2
Maximum Frame-Average Light Level : 323 cd/m2

Audio #1
ID : 2
Format : DTS XLL X
Format/Info : Digital Theater Systems
Commercial name : DTS-HD Master Audio
Codec ID : A_DTS
Duration : 1 h 48 min
Bit rate mode : Variable
Bit rate : 6 697 kb/s
Channel(s) : 8 channels
Channel(s)_Original : Object Based
ChannelLayout_Original : Object Based
Sampling rate : 48.0 kHz
Frame rate : 93.750 FPS (512 SPF)
Bit depth : 24 bits
Stream size : 5.08 GiB (7%)
Title : DTS:X 7.1
Language : English
Default : Yes
Forced : No

Audio #2
ID : 3
Format : AC-3
Format/Info : Audio Coding 3
Commercial name : Dolby Digital
Codec ID : A_AC3
Duration : 1 h 48 min
Bit rate mode : Constant
Bit rate : 192 kb/s
Channel(s) : 2 channels
Channel layout : L R
Sampling rate : 48.0 kHz
Frame rate : 31.250 FPS (1536 SPF)
Compression mode : Lossy
Stream size : 149 MiB (0%)
Title : Commentary by Director John Carpenter & Actor Kurt Russell
Language : English
Service kind : Complete Main
Default : No
Forced : No

Audio #3
ID : 4
Format : AC-3
Format/Info : Audio Coding 3
Commercial name : Dolby Digital
Codec ID : A_AC3
Duration : 1 h 48 min
Bit rate mode : Constant
Bit rate : 192 kb/s
Channel(s) : 2 channels
Channel layout : L R
Sampling rate : 48.0 kHz
Frame rate : 31.250 FPS (1536 SPF)
Compression mode : Lossy
Delay relative to video : 1 s 1 ms
Stream size : 149 MiB (0%)
Title : Commentary by Cinematographer Dean Cundy
Language : English
Service kind : Complete Main
Default : No
Forced : No

Audio #4
ID : 5
Format : AC-3
Format/Info : Audio Coding 3
Commercial name : Dolby Digital
Codec ID : A_AC3
Duration : 1 h 48 min
Bit rate mode : Constant
Bit rate : 192 kb/s
Channel(s) : 2 channels
Channel layout : L R
Sampling rate : 48.0 kHz
Frame rate : 31.250 FPS (1536 SPF)
Compression mode : Lossy
Delay relative to video : 1 s 1 ms
Stream size : 149 MiB (0%)
Title : Commentary by Co-producer Stuart Cohen
Language : English
Service kind : Complete Main
Default : No
Forced : No

Audio #5
ID : 6
Format : DTS
Format/Info : Digital Theater Systems
Codec ID : A_DTS
Duration : 1 h 48 min
Bit rate mode : Constant
Bit rate : 255 kb/s
Channel(s) : 2 channels
Channel layout : L R
Sampling rate : 48.0 kHz
Frame rate : 93.750 FPS (512 SPF)
Bit depth : 24 bits
Compression mode : Lossy
Delay relative to video : 1 s 1 ms
Stream size : 198 MiB (0%)
Title : Commentary by Todd Cameron of Outpost31.com
Language : English
Default : No
Forced : No

Text #1
ID : 7
Format : PGS
Codec ID : S_HDMV/PGS
Codec ID/Info : Picture based subtitle format used on BDs/HD-DVDs
Duration : 1 h 37 min
Bit rate : 23.0 kb/s
Count of elements : 1517
Stream size : 16.0 MiB (0%)
Title : English (SDH)
Language : English
Default : No
Forced : No

Text #2
ID : 8
Format : PGS
Codec ID : S_HDMV/PGS
Codec ID/Info : Picture based subtitle format used on BDs/HD-DVDs
Duration : 1 h 46 min
Bit rate : 13.7 kb/s
Count of elements : 1316
Stream size : 10.5 MiB (0%)
Title : Chinese (Mandarin Traditional)
Language : Chinese
Default : No
Forced : No

Text #3
ID : 9
Format : PGS
Codec ID : S_HDMV/PGS
Codec ID/Info : Picture based subtitle format used on BDs/HD-DVDs
Duration : 1 h 46 min
Bit rate : 16.0 kb/s
Count of elements : 1252
Stream size : 12.2 MiB (0%)
Title : Danish
Language : Danish
Default : No
Forced : No

Text #4
ID : 10
Format : PGS
Codec ID : S_HDMV/PGS
Codec ID/Info : Picture based subtitle format used on BDs/HD-DVDs
Duration : 1 h 44 min
Bit rate : 16.1 kb/s
Count of elements : 1248
Stream size : 12.0 MiB (0%)
Title : Dutch
Language : Dutch
Default : No
Forced : No

Text #5
ID : 11
Format : PGS
Codec ID : S_HDMV/PGS
Codec ID/Info : Picture based subtitle format used on BDs/HD-DVDs
Duration : 1 h 46 min
Bit rate : 14.3 kb/s
Count of elements : 1196
Stream size : 10.9 MiB (0%)
Title : Finnish
Language : Finnish
Default : No
Forced : No

Text #6
ID : 12
Format : PGS
Codec ID : S_HDMV/PGS
Codec ID/Info : Picture based subtitle format used on BDs/HD-DVDs
Duration : 1 h 39 min
Bit rate : 15.5 kb/s
Count of elements : 1301
Stream size : 11.0 MiB (0%)
Title : French
Language : French
Default : No
Forced : No

Text #7
ID : 13
Format : PGS
Codec ID : S_HDMV/PGS
Codec ID/Info : Picture based subtitle format used on BDs/HD-DVDs
Duration : 1 h 44 min
Bit rate : 17.4 kb/s
Count of elements : 1238
Stream size : 12.9 MiB (0%)
Title : German
Language : German
Default : No
Forced : No

Text #8
ID : 14
Format : PGS
Codec ID : S_HDMV/PGS
Codec ID/Info : Picture based subtitle format used on BDs/HD-DVDs
Duration : 1 h 46 min
Bit rate : 16.4 kb/s
Count of elements : 1306
Stream size : 12.5 MiB (0%)
Title : Italian
Language : Italian
Default : No
Forced : No

Text #9
ID : 15
Format : PGS
Codec ID : S_HDMV/PGS
Codec ID/Info : Picture based subtitle format used on BDs/HD-DVDs
Duration : 1 h 39 min
Bit rate : 10.5 kb/s
Count of elements : 1206
Stream size : 7.45 MiB (0%)
Title : Japanese
Language : Japanese
Default : No
Forced : No

Text #10
ID : 16
Format : PGS
Codec ID : S_HDMV/PGS
Codec ID/Info : Picture based subtitle format used on BDs/HD-DVDs
Duration : 1 h 46 min
Bit rate : 11.5 kb/s
Count of elements : 1324
Stream size : 8.74 MiB (0%)
Title : Korean
Language : Korean
Default : No
Forced : No

Text #11
ID : 17
Format : PGS
Codec ID : S_HDMV/PGS
Codec ID/Info : Picture based subtitle format used on BDs/HD-DVDs
Duration : 1 h 44 min
Bit rate : 13.7 kb/s
Count of elements : 1288
Stream size : 10.2 MiB (0%)
Title : Norwegian
Language : Norwegian
Default : No
Forced : No

Text #12
ID : 18
Format : PGS
Codec ID : S_HDMV/PGS
Codec ID/Info : Picture based subtitle format used on BDs/HD-DVDs
Duration : 1 h 46 min
Bit rate : 15.1 kb/s
Count of elements : 1224
Stream size : 11.5 MiB (0%)
Title : Portuguese (Iberian)
Language : Portuguese
Default : No
Forced : No

Text #13
ID : 19
Format : PGS
Codec ID : S_HDMV/PGS
Codec ID/Info : Picture based subtitle format used on BDs/HD-DVDs
Duration : 1 h 46 min
Bit rate : 17.3 kb/s
Count of elements : 1278
Stream size : 13.2 MiB (0%)
Title : Spanish (Castilian)
Language : Spanish
Default : No
Forced : No

Text #14
ID : 20
Format : PGS
Codec ID : S_HDMV/PGS
Codec ID/Info : Picture based subtitle format used on BDs/HD-DVDs
Duration : 1 h 39 min
Bit rate : 20.1 kb/s
Count of elements : 1304
Stream size : 14.3 MiB (0%)
Title : Spanish (Latin American)
Language : Spanish
Default : No
Forced : No

Text #15
ID : 21
Format : PGS
Codec ID : S_HDMV/PGS
Codec ID/Info : Picture based subtitle format used on BDs/HD-DVDs
Duration : 1 h 46 min
Bit rate : 13.4 kb/s
Count of elements : 1176
Stream size : 10.2 MiB (0%)
Title : Swedish
Language : Swedish
Default : No
Forced : No

Text #16
ID : 22
Format : PGS
Codec ID : S_HDMV/PGS
Codec ID/Info : Picture based subtitle format used on BDs/HD-DVDs
Duration : 1 h 45 min
Bit rate : 79.6 kb/s
Count of elements : 3800
Stream size : 59.9 MiB (0%)
Title : English (Commentary #1)
Language : English
Default : No
Forced : No

Text #17
ID : 23
Format : PGS
Codec ID : S_HDMV/PGS
Codec ID/Info : Picture based subtitle format used on BDs/HD-DVDs
Duration : 1 h 45 min
Bit rate : 63.4 kb/s
Count of elements : 3784
Stream size : 47.7 MiB (0%)
Title : Danish (Commentary #1)
Language : Danish
Default : No
Forced : No

Text #18
ID : 24
Format : PGS
Codec ID : S_HDMV/PGS
Codec ID/Info : Picture based subtitle format used on BDs/HD-DVDs
Duration : 1 h 45 min
Bit rate : 66.0 kb/s
Count of elements : 3784
Stream size : 49.7 MiB (0%)
Title : Dutch (Commentary #1)
Language : Dutch
Default : No
Forced : No

Text #19
ID : 25
Format : PGS
Codec ID : S_HDMV/PGS
Codec ID/Info : Picture based subtitle format used on BDs/HD-DVDs
Duration : 1 h 45 min
Bit rate : 63.8 kb/s
Count of elements : 3776
Stream size : 48.0 MiB (0%)
Title : Finnish (Commentary #1)
Language : Finnish
Default : No
Forced : No

Text #20
ID : 26
Format : PGS
Codec ID : S_HDMV/PGS
Codec ID/Info : Picture based subtitle format used on BDs/HD-DVDs
Duration : 1 h 45 min
Bit rate : 59.8 kb/s
Count of elements : 3784
Stream size : 45.0 MiB (0%)
Title : French (Commentary #1)
Language : French
Default : No
Forced : No

Text #21
ID : 27
Format : PGS
Codec ID : S_HDMV/PGS
Codec ID/Info : Picture based subtitle format used on BDs/HD-DVDs
Duration : 1 h 45 min
Bit rate : 73.1 kb/s
Count of elements : 3784
Stream size : 55.1 MiB (0%)
Title : German (Commentary #1)
Language : German
Default : No
Forced : No

Text #22
ID : 28
Format : PGS
Codec ID : S_HDMV/PGS
Codec ID/Info : Picture based subtitle format used on BDs/HD-DVDs
Duration : 1 h 45 min
Bit rate : 61.8 kb/s
Count of elements : 3784
Stream size : 46.5 MiB (0%)
Title : Italian (Commentary #1)
Language : Italian
Default : No
Forced : No

Text #23
ID : 29
Format : PGS
Codec ID : S_HDMV/PGS
Codec ID/Info : Picture based subtitle format used on BDs/HD-DVDs
Duration : 1 h 45 min
Bit rate : 40.8 kb/s
Count of elements : 3280
Stream size : 30.7 MiB (0%)
Title : Japanese (Commentary #1)
Language : Japanese
Default : No
Forced : No

Text #24
ID : 30
Format : PGS
Codec ID : S_HDMV/PGS
Codec ID/Info : Picture based subtitle format used on BDs/HD-DVDs
Duration : 1 h 45 min
Bit rate : 61.6 kb/s
Count of elements : 3782
Stream size : 46.4 MiB (0%)
Title : Norwegian (Commentary #1)
Language : Norwegian
Default : No
Forced : No

Text #25
ID : 31
Format : PGS
Codec ID : S_HDMV/PGS
Codec ID/Info : Picture based subtitle format used on BDs/HD-DVDs
Duration : 1 h 45 min
Bit rate : 69.7 kb/s
Count of elements : 3772
Stream size : 52.5 MiB (0%)
Title : Portuguese (Iberian) (Commentary #1)
Language : Portuguese
Default : No
Forced : No

Text #26
ID : 32
Format : PGS
Codec ID : S_HDMV/PGS
Codec ID/Info : Picture based subtitle format used on BDs/HD-DVDs
Duration : 1 h 45 min
Bit rate : 63.9 kb/s
Count of elements : 3784
Stream size : 48.1 MiB (0%)
Title : Spanish (Castilian) (Commentary #1)
Language : Spanish
Default : No
Forced : No

Text #27
ID : 33
Format : PGS
Codec ID : S_HDMV/PGS
Codec ID/Info : Picture based subtitle format used on BDs/HD-DVDs
Duration : 1 h 45 min
Bit rate : 62.3 kb/s
Count of elements : 3784
Stream size : 46.9 MiB (0%)
Title : Swedish (Commentary #1)
Language : Swedish
Default : No
Forced : No

Menu
00:00:00.000 : Main Titles
00:02:06.793 : Antarctica, Winter, 1982
00:04:33.899 : Station 4
00:07:01.880 : Death in the Snow
00:10:23.248 : Looking for Answers
00:14:21.986 : It Begins…
00:15:48.281 : The Norwegian Camp
00:22:13.332 : The Man-Thing
00:24:49.446 : What Appears to Be Normal
00:27:00.619 : The Beast Within
00:30:12.811 : The Thing
00:33:02.480 : Autopsy on an Alien
00:34:14.719 : The Perfect Imitation
00:36:02.410 : Something in the Ice
00:37:21.656 : The Crater
00:40:04.444 : It’s Different Than Us
00:41:43.626 : The Probability of Infection
00:45:31.312 : They’re Not Dead Yet
00:46:30.746 : The Thing That Was Bennings
00:50:17.223 : Blair Goes Berserk
00:54:43.197 : Matters of Trust
00:57:35.410 : Bad Blood
00:59:07.836 : The Man-in-Charge
01:02:46.388 : Waiting
01:05:27.382 : Where’s Fuchs?
01:09:50.978 : Macready Cuts Loose
01:14:22.667 : The Deadly Defibrillation
01:17:42.741 : A Little Test
01:18:43.802 : Something in the Blood
01:25:17.612 : Finishing the Test
01:26:40.237 : Blair’s Little Project
01:29:18.186 : No Way Out
01:31:13.968 : Warming Things Up
01:34:24.701 : Right Down Into the Ice
01:37:18.332 : The Real Thing
01:39:13.447 : One Last Thing
01:42:08.414 : End Titles

Leave a Reply

Your email address will not be published. Required fields are marked *