The Ten Commandments (1956) | 720p & 1080p & 2160p x265-BvS

Pharaoh Ramesses I of Ancient Egypt orders the death of all newborn Israelites males. Jochebed saves her infant son by setting him adrift in a basket on the Nile. Bithiah, the Pharaoh’s daughter, finds the basket and decides to adopt the boy even though her servant, Memnet, recognizes the child is Hebrew. Bithiah names the baby Moses.

Links: iMDB | Trailer

Note: In English with English/French/German/Spanish Selectable Subtitles

DOWNLOAD

VIP (GOOGLE DRIVE)

This content is reserved for registered users. BUY A VIP MEMBERSHIP HERE and login to be able to see it.

FREE

  • The Ten Commandments (1956) (2160p BluRay x265 10bit HDR Tigole) (ONLY VIP)

NFO

The Ten Commandments (1956) (2160p BluRay x265 10bit HDR Tigole)

General
Unique ID : 24432689238379067233401348626208957593 (0x1261909597D829FEAFF61F02E12AA499)
Complete name : The Ten Commandments (1956) (2160p BluRay x265 10bit HDR Tigole).mkv
Format : Matroska
Format version : Version 4
File size : 34.1 GiB
Duration : 3 h 51 min
Overall bit rate : 21.1 Mb/s
Movie name : The Ten Commandments
Encoded date : UTC 2021-04-02 16:37:28
Writing application : mkvmerge v54.0.0 (‘F Maj Pixie’) 64-bit
Writing library : libebml v1.4.2 + libmatroska v1.6.3

Video
ID : 1
Format : HEVC
Format/Info : High Efficiency Video Coding
Format profile : Main [email protected]@Main
HDR format : SMPTE ST 2086, HDR10 compatible
Codec ID : V_MPEGH/ISO/HEVC
Duration : 3 h 51 min
Bit rate : 20.5 Mb/s
Width : 3 840 pixels
Height : 2 160 pixels
Display aspect ratio : 16:9
Frame rate mode : Constant
Frame rate : 23.976 (24000/1001) FPS
Color space : YUV
Chroma subsampling : 4:2:0
Bit depth : 10 bits
Bits/(Pixel*Frame) : 0.103
Stream size : 33.2 GiB (97%)
Writing library : x265M – 3.4+35-772bb4c84:[Windows][GCC 10.2.0][64 bit] 10bit
Encoding settings : cpuid=1111039 / frame-threads=3 / numa-pools=8 / wpp / no-pmode / no-pme / no-psnr / no-ssim / log-level=2 / input-csp=1 / input-res=3840×2160 / interlace=0 / total-frames=333184 / level-idc=0 / high-tier=1 / uhd-bd=0 / ref=4 / no-allow-non-conformance / repeat-headers / annexb / no-aud / no-hrd / info / hash=0 / no-temporal-layers / open-gop / min-keyint=23 / keyint=250 / gop-lookahead=0 / bframes=8 / b-adapt=2 / b-pyramid / bframe-bias=0 / rc-lookahead=25 / lookahead-slices=4 / scenecut=40 / hist-scenecut=0 / radl=0 / no-splice / no-intra-refresh / ctu=64 / min-cu-size=8 / rect / no-amp / max-tu-size=32 / tu-inter-depth=1 / tu-intra-depth=1 / limit-tu=0 / rdoq-level=2 / dynamic-rd=0.00 / no-ssim-rd / signhide / no-tskip / nr-intra=0 / nr-inter=0 / no-constrained-intra / strong-intra-smoothing / max-merge=3 / limit-refs=3 / limit-modes / me=3 / subme=3 / merange=57 / temporal-mvp / no-frame-dup / no-hme / weightp / no-weightb / no-analyze-src-pics / deblock=0:0 / no-sao / no-sao-non-deblock / rd=4 / selective-sao=0 / no-early-skip / rskip / no-fast-intra / no-tskip-fast / no-cu-lossless / no-b-intra / no-splitrd-skip / rdpenalty=0 / psy-rd=2.00 / psy-rdoq=1.00 / no-rd-refine / no-lossless / cbqpoffs=0 / crqpoffs=0 / rc=crf / crf=16.0 / qcomp=0.60 / qpstep=4 / stats-write=0 / stats-read=0 / ipratio=1.40 / pbratio=1.30 / aq-mode=2 / aq-strength=1.00 / cutree / zone-count=0 / no-strict-cbr / qg-size=32 / no-rc-grain / qpmax=69 / qpmin=0 / no-const-vbv / sar=0 / overscan=0 / videoformat=5 / range=0 / colorprim=9 / transfer=16 / colormatrix=9 / chromaloc=0 / display-window=0 / master-display=G(13250,34500)B(7500,3000)R(34000,16000)WP(15635,16450)L(40000000,50) / cll=1281,148 / min-luma=0 / max-luma=1023 / log2-max-poc-lsb=8 / vui-timing-info / vui-hrd-info / slices=1 / no-opt-qp-pps / no-opt-ref-list-length-pps / no-multi-pass-opt-rps / scenecut-bias=0.05 / hist-threshold=0.03 / no-opt-cu-delta-qp / aq-motion / hdr10 / hdr10-opt / no-dhdr10-opt / no-idr-recovery-sei / analysis-reuse-level=0 / analysis-save-reuse-level=0 / analysis-load-reuse-level=0 / scale-factor=0 / refine-intra=0 / refine-inter=0 / refine-mv=1 / refine-ctu-distortion=0 / no-limit-sao / ctu-info=0 / no-lowpass-dct / refine-analysis-type=0 / copy-pic=1 / max-ausize-factor=1.0 / no-dynamic-refine / no-single-sei / no-hevc-aq / no-svt / no-field / qp-adaptation-range=1.00 / scenecut-aware-qp=0conformance-window-offsets / right=0 / bottom=0 / decoder-max-rate=0 / no-vbv-live-multi-pass
Default : Yes
Forced : No
Color range : Limited
Color primaries : BT.2020
Transfer characteristics : PQ
Matrix coefficients : BT.2020 non-constant
Mastering display color primaries : Display P3
Mastering display luminance : min: 0.0050 cd/m2, max: 4000 cd/m2
Maximum Content Light Level : 1281 cd/m2
Maximum Frame-Average Light Level : 148 cd/m2

Audio #1
ID : 2
Format : AAC LC
Format/Info : Advanced Audio Codec Low Complexity
Codec ID : A_AAC-2
Duration : 3 h 51 min
Bit rate : 466 kb/s
Channel(s) : 6 channels
Channel layout : C L R Ls Rs LFE
Sampling rate : 48.0 kHz
Frame rate : 46.875 FPS (1024 SPF)
Compression mode : Lossy
Delay relative to video : 20 ms
Stream size : 771 MiB (2%)
Language : English
Default : Yes
Forced : No

Audio #2
ID : 3
Format : AAC LC SBR
Format/Info : Advanced Audio Codec Low Complexity with Spectral Band Replication
Commercial name : HE-AAC
Format settings : Explicit
Codec ID : A_AAC-2
Duration : 3 h 51 min
Bit rate : 66.2 kb/s
Channel(s) : 2 channels
Channel layout : L R
Sampling rate : 48.0 kHz
Frame rate : 23.438 FPS (2048 SPF)
Compression mode : Lossy
Delay relative to video : 40 ms
Stream size : 109 MiB (0%)
Title : Commentary
Language : English
Default : No
Forced : No

Text #1
ID : 4
Format : VobSub
Muxing mode : zlib
Codec ID : S_VOBSUB
Codec ID/Info : Picture based subtitle format used on DVDs
Duration : 3 h 43 min
Bit rate : 10.2 kb/s
Count of elements : 2870
Stream size : 16.3 MiB (0%)
Language : English
Default : No
Forced : No

Text #2
ID : 5
Format : VobSub
Muxing mode : zlib
Codec ID : S_VOBSUB
Codec ID/Info : Picture based subtitle format used on DVDs
Duration : 3 h 44 min
Bit rate : 17.4 kb/s
Count of elements : 3550
Stream size : 28.0 MiB (0%)
Title : Commentary
Language : English
Default : No
Forced : No

Text #3
ID : 6
Format : VobSub
Muxing mode : zlib
Codec ID : S_VOBSUB
Codec ID/Info : Picture based subtitle format used on DVDs
Duration : 3 h 51 min
Bit rate : 9 341 b/s
Count of elements : 2676
Stream size : 15.5 MiB (0%)
Language : French
Default : No
Forced : No

Text #4
ID : 7
Format : VobSub
Muxing mode : zlib
Codec ID : S_VOBSUB
Codec ID/Info : Picture based subtitle format used on DVDs
Duration : 3 h 51 min
Bit rate : 14.0 kb/s
Count of elements : 3446
Stream size : 23.2 MiB (0%)
Title : Commentary
Language : French
Default : No
Forced : No

Text #5
ID : 8
Format : VobSub
Muxing mode : zlib
Codec ID : S_VOBSUB
Codec ID/Info : Picture based subtitle format used on DVDs
Duration : 3 h 51 min
Bit rate : 9 690 b/s
Count of elements : 2659
Stream size : 16.0 MiB (0%)
Language : German
Default : No
Forced : No

Text #6
ID : 9
Format : VobSub
Muxing mode : zlib
Codec ID : S_VOBSUB
Codec ID/Info : Picture based subtitle format used on DVDs
Duration : 3 h 51 min
Bit rate : 48 b/s
Count of elements : 13
Stream size : 81.5 KiB (0%)
Title : Forced
Language : German
Default : No
Forced : No

Text #7
ID : 10
Format : VobSub
Muxing mode : zlib
Codec ID : S_VOBSUB
Codec ID/Info : Picture based subtitle format used on DVDs
Duration : 3 h 51 min
Bit rate : 14.6 kb/s
Count of elements : 3098
Stream size : 24.1 MiB (0%)
Title : Commentary
Language : German
Default : No
Forced : No

Menu
00:00:00.000 : en:Chapter 01
00:01:40.391 : en:Chapter 02
00:04:05.161 : en:Chapter 03
00:09:44.166 : en:Chapter 04
00:12:55.274 : en:Chapter 05
00:17:04.898 : en:Chapter 06
00:20:20.886 : en:Chapter 07
00:25:58.014 : en:Chapter 08
00:27:29.689 : en:Chapter 09
00:30:49.222 : en:Chapter 10
00:36:17.175 : en:Chapter 11
00:38:17.670 : en:Chapter 12
00:43:47.041 : en:Chapter 13
00:49:26.964 : en:Chapter 14
00:59:30.108 : en:Chapter 15
01:07:28.294 : en:Chapter 16
01:15:25.812 : en:Chapter 17
01:18:42.467 : en:Chapter 18
01:27:31.246 : en:Chapter 19
01:38:42.291 : en:Chapter 20
01:41:58.695 : en:Chapter 21
01:44:10.077 : en:Chapter 22
01:47:28.150 : en:Chapter 23
01:53:08.990 : en:Chapter 24
01:56:30.441 : en:Chapter 25
01:59:40.256 : en:Chapter 26
02:02:49.320 : en:Chapter 27
02:05:54.463 : en:Chapter 28
02:08:43.757 : en:Chapter 29
02:15:49.975 : en:Chapter 30
02:18:05.068 : en:Chapter 31
02:23:20.925 : en:Chapter 32
02:25:09.951 : en:Chapter 33
02:29:49.689 : en:Chapter 34
02:37:17.344 : en:Chapter 35
02:44:31.820 : en:Chapter 36
02:46:48.456 : en:Chapter 37
02:55:14.086 : en:Chapter 38
02:58:59.979 : en:Chapter 39
03:10:00.847 : en:Chapter 40
03:14:23.568 : en:Chapter 41
03:19:28.081 : en:Chapter 42
03:29:06.408 : en:Chapter 43
03:32:01.166 : en:Chapter 44
03:37:55.687 : en:Chapter 45
03:40:34.930 : en:Chapter 46
03:43:05.872 : en:Chapter 47
03:46:52.390 : en:Chapter 48

 

Leave a Reply

Your email address will not be published. Required fields are marked *