The Spy Who Loved Me (1977) | 720p & 1080p & 2160p BluRay x265-BvS

James Bond investigates the hijacking of British and Russian submarines carrying nuclear warheads, with the help of a K.G.B. agent whose lover he killed.

Links: IMDB Trailer

Note: In English with English/Spanish/French/Portuguese Selectable Subtitles

DOWNLOAD

VIP

This content is reserved for registered users. Sign up here o login to be able to see it. Buy your VIP membership

FREE

  • The.Spy.Who.Loved.Me.1977.2160p.WEB-DL.DTS-HD.MA.5.1.HEVC-AjA – 22GB (ONLY VIP)

NFO

The.Spy.Who.Loved.Me.1977.2160p.WEB-DL.DTS-HD.MA.5.1.HEVC-AjA

General
Unique ID : 293053582250833036105018532924835727791 (0xDC781122C32F2646F2B90CBEB8FF89AF)
Complete name :  The.Spy.Who.Loved.Me.1977.2160p.WEB-DL.DTS-HD.MA.5.1.HEVC-AjA.mkv
Format : Matroska
Format version : Version 4
File size : 22.0 GiB
Duration : 2 h 5 min
Overall bit rate mode : Variable
Overall bit rate : 25.1 Mb/s
Movie name : The Spy Who Loved Me (1977)
Encoded date : UTC 2022-05-06 00:13:52
Writing application : mkvmerge v66.0.0 (‘Josie’) 64-bit
Writing library : libebml v1.4.2 + libmatroska v1.6.4

Video
ID : 1
Format : HEVC
Format/Info : High Efficiency Video Coding
Format profile : Main [email protected]@High
Codec ID : V_MPEGH/ISO/HEVC
Duration : 2 h 5 min
Bit rate : 20.5 Mb/s
Width : 3 840 pixels
Height : 1 634 pixels
Display aspect ratio : 2.35:1
Frame rate mode : Constant
Frame rate : 23.976 (23976/1000) FPS
Color space : YUV
Chroma subsampling : 4:2:0
Bit depth : 10 bits
Bits/(Pixel*Frame) : 0.136
Stream size : 18.0 GiB (82%)
Default : Yes
Forced : No
Color range : Limited
Color primaries : BT.709
Transfer characteristics : BT.709
Matrix coefficients : BT.709

Audio #1
ID : 2
Format : DTS XLL
Format/Info : Digital Theater Systems
Commercial name : DTS-HD Master Audio
Codec ID : A_DTS
Duration : 2 h 5 min
Bit rate mode : Variable
Bit rate : 4 141 kb/s
Channel(s) : 6 channels
Channel layout : C L R Ls Rs LFE
Sampling rate : 48.0 kHz
Frame rate : 93.750 FPS (512 SPF)
Bit depth : 24 bits
Compression mode : Lossless
Delay relative to video : 4 s 212 ms
Stream size : 3.63 GiB (17%)
Language : English
Default : Yes
Forced : No

Audio #2
ID : 3
Format : AC-3
Format/Info : Audio Coding 3
Commercial name : Dolby Digital
Codec ID : A_AC3
Duration : 2 h 5 min
Bit rate mode : Constant
Bit rate : 384 kb/s
Channel(s) : 6 channels
Channel layout : L R C LFE Ls Rs
Sampling rate : 48.0 kHz
Frame rate : 31.250 FPS (1536 SPF)
Compression mode : Lossy
Stream size : 345 MiB (2%)
Title : British
Language : English
Service kind : Complete Main
Default : Yes
Forced : No

Text #1
ID : 4
Format : UTF-8
Codec ID : S_TEXT/UTF8
Codec ID/Info : UTF-8 Plain Text
Duration : 2 h 2 min
Bit rate : 32 b/s
Count of elements : 728
Stream size : 28.9 KiB (0%)
Language : English
Default : No
Forced : No

Text #2
ID : 5
Format : UTF-8
Codec ID : S_TEXT/UTF8
Codec ID/Info : UTF-8 Plain Text
Duration : 2 h 4 min
Bit rate : 34 b/s
Count of elements : 895
Stream size : 31.8 KiB (0%)
Title : Latin American
Language : Spanish
Default : No
Forced : No

Text #3
ID : 6
Format : UTF-8
Codec ID : S_TEXT/UTF8
Codec ID/Info : UTF-8 Plain Text
Duration : 2 h 4 min
Bit rate : 28 b/s
Count of elements : 666
Stream size : 26.4 KiB (0%)
Language : French
Default : No
Forced : No

Text #4
ID : 7
Format : UTF-8
Codec ID : S_TEXT/UTF8
Codec ID/Info : UTF-8 Plain Text
Duration : 2 h 2 min
Bit rate : 30 b/s
Count of elements : 844
Stream size : 27.4 KiB (0%)
Title : Brazilian
Language : Portuguese
Default : No
Forced : No

Menu
00:00:04.212 : :Chapter01
00:00:53.719 : :Chapter02
00:06:03.821 : :Chapter03
00:08:10.197 : :Chapter04
00:12:41.259 : :Chapter05
00:15:19.376 : :Chapter06
00:18:05.500 : :Chapter07
00:20:39.445 : :Chapter08
00:23:20.982 : :Chapter09
00:27:33.025 : :Chapter10
00:33:02.646 : :Chapter11
00:40:05.235 : :Chapter12
00:46:16.648 : :Chapter13
00:48:35.954 : :Chapter14
00:51:10.525 : :Chapter15
00:53:28.246 : :Chapter16
00:57:41.332 : :Chapter17
01:01:18.924 : :Chapter18
01:06:07.838 : :Chapter19
01:10:44.114 : :Chapter20
01:17:06.663 : :Chapter21
01:22:44.917 : :Chapter22
01:25:32.126 : :Chapter23
01:31:10.172 : :Chapter24
01:34:54.479 : :Chapter25
01:36:20.399 : :Chapter26
01:40:41.785 : :Chapter27
01:49:00.366 : :Chapter28
01:54:16.057 : :Chapter29
01:57:57.736 : :Chapter30
01:59:49.765 : :Chapter31
02:04:00.891 : :Chapter32
02:05:44.494 : :Chapter33

(He/Him) He's BvSRips. I dedicate myself to sharing files on this blog for free. But it is difficult to maintain the links online for a long time, they are denounced and deleted, reuploading costs more work, that is why a section for VIP users was created, where they can download all the files published 100% in MEGA, as premium, without spend more. I would greatly appreciate your collaboration so that this blog remains online for a longer time.

BUY VIP HERE

Leave a Reply

Your email address will not be published. Required fields are marked *