The Shawshank Redemption (1994) | 720p & 1080p & 2160p BluRay x265-BvS

Chronicles the experiences of a formerly successful banker as a prisoner in the gloomy jailhouse of Shawshank after being found guilty of a crime he did not commit. The film portrays the man’s unique way of dealing with his new, torturous life; along the way he befriends a number of fellow prisoners, most notably a wise long-term inmate named Red.

Links: iMDB | Trailer

Note: In English with English/French/German/Spanish Selectable Subtitles

DOWNLOAD

VIP

This content is reserved for registered users. BUY A VIP MEMBERSHIP HERE and login to be able to see it.

FREE

  • The Shawshank Redemption 1994 2160p UHD Blu-ray Remux HEVC DTS-HD MA 5 1-HDT – 53.60GB (ONLY VIP)

NFO

The Shawshank Redemption 1994 2160p UHD Blu-ray Remux HEVC DTS-HD MA 5 1-HDT

General
Unique ID : 277180515069451539883869315116815209235 (0xD08706806FE0A49DE04ECF683371D313)
Complete name : The Shawshank Redemption 1994 2160p UHD Blu-ray Remux HEVC DTS-HD MA 5 1-HDT .mkv
Format : Matroska
Format version : Version 4
File size : 53.6 GiB
Duration : 2 h 22 min
Overall bit rate mode : Variable
Overall bit rate : 53.8 Mb/s
Encoded date : UTC 2021-09-13 06:40:52
Writing application : mkvmerge v60.0.0 (‘Are We Copies?’) 64-bit
Writing library : libebml v1.4.2 + libmatroska v1.6.4

Video
ID : 1
ID in the original source medium : 4113 (0x1011)
Format : HEVC
Format/Info : High Efficiency Video Coding
Format profile : Main [email protected]@High
HDR format : SMPTE ST 2086, HDR10 compatible
Codec ID : V_MPEGH/ISO/HEVC
Duration : 2 h 22 min
Bit rate : 49.0 Mb/s
Width : 3 840 pixels
Height : 2 160 pixels
Display aspect ratio : 16:9
Frame rate mode : Constant
Frame rate : 23.976 (24000/1001) FPS
Color space : YUV
Chroma subsampling : 4:2:0 (Type 2)
Bit depth : 10 bits
Bits/(Pixel*Frame) : 0.247
Stream size : 48.8 GiB (91%)
Default : Yes
Forced : No
Color range : Limited
Color primaries : BT.2020
Transfer characteristics : PQ
Matrix coefficients : BT.2020 non-constant
Mastering display color primaries : Display P3
Mastering display luminance : min: 0.0050 cd/m2, max: 4000 cd/m2
Maximum Content Light Level : 833 cd/m2
Maximum Frame-Average Light Level : 108 cd/m2
Original source medium : Blu-ray

Audio
ID : 2
ID in the original source medium : 4352 (0x1100)
Format : DTS XLL
Format/Info : Digital Theater Systems
Commercial name : DTS-HD Master Audio
Codec ID : A_DTS
Duration : 2 h 22 min
Bit rate mode : Variable
Bit rate : 4 207 kb/s
Channel(s) : 6 channels
Channel layout : C L R Ls Rs LFE
Sampling rate : 48.0 kHz
Frame rate : 93.750 FPS (512 SPF)
Bit depth : 24 bits
Compression mode : Lossless
Stream size : 4.19 GiB (8%)
Language : English
Default : Yes
Forced : No
Original source medium : Blu-ray

Text #1
ID : 3
ID in the original source medium : 4768 (0x12A0)
Format : PGS
Codec ID : S_HDMV/PGS
Codec ID/Info : Picture based subtitle format used on BDs/HD-DVDs
Duration : 2 h 16 min
Bit rate : 20.8 kb/s
Count of elements : 2901
Stream size : 20.2 MiB (0%)
Language : Japanese
Default : Yes
Forced : No
Original source medium : Blu-ray

Text #2
ID : 4
ID in the original source medium : 4769 (0x12A1)
Format : PGS
Codec ID : S_HDMV/PGS
Codec ID/Info : Picture based subtitle format used on BDs/HD-DVDs
Duration : 2 h 17 min
Bit rate : 34.9 kb/s
Count of elements : 3556
Stream size : 34.3 MiB (0%)
Language : English
Default : Yes
Forced : No
Original source medium : Blu-ray

Text #3
ID : 5
ID in the original source medium : 4770 (0x12A2)
Format : PGS
Codec ID : S_HDMV/PGS
Codec ID/Info : Picture based subtitle format used on BDs/HD-DVDs
Duration : 2 h 21 min
Bit rate : 22.0 kb/s
Count of elements : 3176
Stream size : 22.3 MiB (0%)
Language : French
Default : Yes
Forced : No
Original source medium : Blu-ray

Text #4
ID : 6
ID in the original source medium : 4771 (0x12A3)
Format : PGS
Codec ID : S_HDMV/PGS
Codec ID/Info : Picture based subtitle format used on BDs/HD-DVDs
Duration : 2 h 21 min
Bit rate : 37.6 kb/s
Count of elements : 3522
Stream size : 37.9 MiB (0%)
Language : German
Default : Yes
Forced : No
Original source medium : Blu-ray

Text #5
ID : 7
ID in the original source medium : 4772 (0x12A4)
Format : PGS
Codec ID : S_HDMV/PGS
Codec ID/Info : Picture based subtitle format used on BDs/HD-DVDs
Duration : 2 h 17 min
Bit rate : 34.5 kb/s
Count of elements : 3536
Stream size : 33.9 MiB (0%)
Language : Italian
Default : Yes
Forced : No
Original source medium : Blu-ray

Text #6
ID : 8
ID in the original source medium : 4773 (0x12A5)
Format : PGS
Codec ID : S_HDMV/PGS
Codec ID/Info : Picture based subtitle format used on BDs/HD-DVDs
Duration : 2 h 21 min
Bit rate : 31.7 kb/s
Count of elements : 3472
Stream size : 32.1 MiB (0%)
Language : Spanish
Default : Yes
Forced : No
Original source medium : Blu-ray

Text #7
ID : 9
ID in the original source medium : 4774 (0x12A6)
Format : PGS
Codec ID : S_HDMV/PGS
Codec ID/Info : Picture based subtitle format used on BDs/HD-DVDs
Duration : 2 h 20 min
Bit rate : 29.8 kb/s
Count of elements : 3020
Stream size : 29.9 MiB (0%)
Language : Dutch
Default : Yes
Forced : No
Original source medium : Blu-ray

Text #8
ID : 10
ID in the original source medium : 4775 (0x12A7)
Format : PGS
Codec ID : S_HDMV/PGS
Codec ID/Info : Picture based subtitle format used on BDs/HD-DVDs
Duration : 2 h 17 min
Bit rate : 28.3 kb/s
Count of elements : 3416
Stream size : 27.9 MiB (0%)
Language : Chinese
Default : Yes
Forced : No
Original source medium : Blu-ray

Text #9
ID : 11
ID in the original source medium : 4776 (0x12A8)
Format : PGS
Codec ID : S_HDMV/PGS
Codec ID/Info : Picture based subtitle format used on BDs/HD-DVDs
Duration : 2 h 17 min
Bit rate : 28.5 kb/s
Count of elements : 3416
Stream size : 28.1 MiB (0%)
Language : Chinese
Default : Yes
Forced : No
Original source medium : Blu-ray

Text #10
ID : 12
ID in the original source medium : 4777 (0x12A9)
Format : PGS
Codec ID : S_HDMV/PGS
Codec ID/Info : Picture based subtitle format used on BDs/HD-DVDs
Duration : 2 h 17 min
Bit rate : 24.0 kb/s
Count of elements : 3444
Stream size : 23.6 MiB (0%)
Language : Korean
Default : Yes
Forced : No
Original source medium : Blu-ray

Text #11
ID : 13
ID in the original source medium : 4778 (0x12AA)
Format : PGS
Codec ID : S_HDMV/PGS
Codec ID/Info : Picture based subtitle format used on BDs/HD-DVDs
Duration : 2 h 17 min
Bit rate : 29.6 kb/s
Count of elements : 3390
Stream size : 29.1 MiB (0%)
Language : Spanish
Default : Yes
Forced : No
Original source medium : Blu-ray

Text #12
ID : 14
ID in the original source medium : 4779 (0x12AB)
Format : PGS
Codec ID : S_HDMV/PGS
Codec ID/Info : Picture based subtitle format used on BDs/HD-DVDs
Duration : 2 h 21 min
Bit rate : 28.8 kb/s
Count of elements : 3412
Stream size : 29.1 MiB (0%)
Language : Czech
Default : Yes
Forced : No
Original source medium : Blu-ray

Text #13
ID : 15
ID in the original source medium : 4780 (0x12AC)
Format : PGS
Codec ID : S_HDMV/PGS
Codec ID/Info : Picture based subtitle format used on BDs/HD-DVDs
Duration : 2 h 21 min
Bit rate : 34.6 kb/s
Count of elements : 3724
Stream size : 35.1 MiB (0%)
Language : Danish
Default : Yes
Forced : No
Original source medium : Blu-ray

Text #14
ID : 16
ID in the original source medium : 4781 (0x12AD)
Format : PGS
Codec ID : S_HDMV/PGS
Codec ID/Info : Picture based subtitle format used on BDs/HD-DVDs
Duration : 2 h 20 min
Bit rate : 30.7 kb/s
Count of elements : 3276
Stream size : 30.8 MiB (0%)
Language : Finnish
Default : Yes
Forced : No
Original source medium : Blu-ray

Text #15
ID : 17
ID in the original source medium : 4782 (0x12AE)
Format : PGS
Codec ID : S_HDMV/PGS
Codec ID/Info : Picture based subtitle format used on BDs/HD-DVDs
Duration : 2 h 20 min
Bit rate : 29.7 kb/s
Count of elements : 3710
Stream size : 29.8 MiB (0%)
Language : Norwegian Bokmal
Default : Yes
Forced : No
Original source medium : Blu-ray

Text #16
ID : 18
ID in the original source medium : 4783 (0x12AF)
Format : PGS
Codec ID : S_HDMV/PGS
Codec ID/Info : Picture based subtitle format used on BDs/HD-DVDs
Duration : 2 h 16 min
Bit rate : 35.2 kb/s
Count of elements : 3730
Stream size : 34.3 MiB (0%)
Language : Polish
Default : Yes
Forced : No
Original source medium : Blu-ray

Text #17
ID : 19
ID in the original source medium : 4784 (0x12B0)
Format : PGS
Codec ID : S_HDMV/PGS
Codec ID/Info : Picture based subtitle format used on BDs/HD-DVDs
Duration : 2 h 20 min
Bit rate : 33.0 kb/s
Count of elements : 3408
Stream size : 33.1 MiB (0%)
Language : Swedish
Default : Yes
Forced : No
Original source medium : Blu-ray

Text #18
ID : 20
ID in the original source medium : 4785 (0x12B1)
Format : PGS
Codec ID : S_HDMV/PGS
Codec ID/Info : Picture based subtitle format used on BDs/HD-DVDs
Duration : 2 h 0 min
Bit rate : 53 b/s
Count of elements : 10
Stream size : 47.5 KiB (0%)
Language : French
Default : Yes
Forced : No
Original source medium : Blu-ray

Text #19
ID : 21
ID in the original source medium : 4786 (0x12B2)
Format : PGS
Codec ID : S_HDMV/PGS
Codec ID/Info : Picture based subtitle format used on BDs/HD-DVDs
Duration : 1 h 29 min
Bit rate : 161 b/s
Count of elements : 12
Stream size : 106 KiB (0%)
Language : German
Default : Yes
Forced : No
Original source medium : Blu-ray

Text #20
ID : 22
ID in the original source medium : 4787 (0x12B3)
Format : PGS
Codec ID : S_HDMV/PGS
Codec ID/Info : Picture based subtitle format used on BDs/HD-DVDs
Duration : 2 h 10 min
Bit rate : 161 b/s
Count of elements : 22
Stream size : 154 KiB (0%)
Language : Italian
Default : Yes
Forced : No
Original source medium : Blu-ray

Text #21
ID : 23
ID in the original source medium : 4788 (0x12B4)
Format : PGS
Codec ID : S_HDMV/PGS
Codec ID/Info : Picture based subtitle format used on BDs/HD-DVDs
Duration : 2 h 10 min
Bit rate : 93 b/s
Count of elements : 14
Stream size : 89.2 KiB (0%)
Language : Spanish
Default : Yes
Forced : No
Original source medium : Blu-ray

Text #22
ID : 24
ID in the original source medium : 4789 (0x12B5)
Format : PGS
Codec ID : S_HDMV/PGS
Codec ID/Info : Picture based subtitle format used on BDs/HD-DVDs
Duration : 2 h 10 min
Bit rate : 242 b/s
Count of elements : 36
Stream size : 233 KiB (0%)
Language : Chinese
Default : Yes
Forced : No
Original source medium : Blu-ray

Text #23
ID : 25
ID in the original source medium : 4790 (0x12B6)
Format : PGS
Codec ID : S_HDMV/PGS
Codec ID/Info : Picture based subtitle format used on BDs/HD-DVDs
Duration : 2 h 0 min
Bit rate : 128 b/s
Count of elements : 14
Stream size : 114 KiB (0%)
Language : Spanish
Default : Yes
Forced : No
Original source medium : Blu-ray

Text #24
ID : 26
ID in the original source medium : 4791 (0x12B7)
Format : PGS
Codec ID : S_HDMV/PGS
Codec ID/Info : Picture based subtitle format used on BDs/HD-DVDs
Duration : 16 min 30 s
Bit rate : 159 b/s
Count of elements : 4
Stream size : 19.3 KiB (0%)
Language : Hungarian
Default : Yes
Forced : No
Original source medium : Blu-ray

Text #25
ID : 27
ID in the original source medium : 4792 (0x12B8)
Format : PGS
Codec ID : S_HDMV/PGS
Codec ID/Info : Picture based subtitle format used on BDs/HD-DVDs
Duration : 2 h 20 min
Bit rate : 44.1 kb/s
Count of elements : 3548
Stream size : 44.4 MiB (0%)
Language : Japanese
Default : Yes
Forced : No
Original source medium : Blu-ray

Text #26
ID : 28
ID in the original source medium : 4793 (0x12B9)
Format : PGS
Codec ID : S_HDMV/PGS
Codec ID/Info : Picture based subtitle format used on BDs/HD-DVDs
Duration : 2 h 10 min
Bit rate : 372 b/s
Count of elements : 58
Stream size : 357 KiB (0%)
Language : Japanese
Default : Yes
Forced : No
Original source medium : Blu-ray

Menu
00:00:00.000 : Chapter 01
00:04:40.154 : Chapter 02
00:06:38.731 : Chapter 03
00:10:07.356 : Chapter 04
00:13:46.116 : Chapter 05
00:17:59.953 : Chapter 06
00:23:43.296 : Chapter 07
00:29:01.114 : Chapter 08
00:33:32.885 : Chapter 09
00:38:50.953 : Chapter 10
00:41:06.297 : Chapter 11
00:42:40.683 : Chapter 12
00:46:14.438 : Chapter 13
00:48:14.474 : Chapter 14
00:51:21.578 : Chapter 15
00:57:19.144 : Chapter 16
01:00:27.498 : Chapter 17
01:05:45.858 : Chapter 18
01:07:16.699 : Chapter 19
01:11:03.717 : Chapter 20
01:13:53.262 : Chapter 21
01:15:55.592 : Chapter 22
01:21:08.280 : Chapter 23
01:23:58.992 : Chapter 24
01:29:26.319 : Chapter 25
01:32:10.525 : Chapter 26
01:35:37.189 : Chapter 27
01:38:28.611 : Chapter 28
01:40:38.407 : Chapter 29
01:47:23.186 : Chapter 30
01:50:45.430 : Chapter 31
01:54:31.155 : Chapter 32
02:00:35.561 : Chapter 33
02:04:09.358 : Chapter 34
02:05:51.126 : Chapter 35
02:08:25.864 : Chapter 36
02:10:13.555 : Chapter 37
02:12:56.176 : Chapter 38
02:16:27.762 : Chapter 39
02:18:07.612 : Chapter 40

 

Leave a Reply

Your email address will not be published. Required fields are marked *