The Score (2001) | 720p & 1080p & 2160p BluRay x265-BvS

After nearly being caught on a routine burglary, master safe-cracking Nick Wells decides the time has finally come to retire from his criminal activities. He is enticed into taking one final score by his Fence (criminal) Max. The job, worth a $4 million payoff to Nick, is to steal a sceptre, a French national treasure stored in the ultra-secure basement of the Custom House, Montreal. The sceptre was discovered by Customs agents being smuggled into the US through Canada. Max introduces Nick to Jack Teller, an ambitious thief who has infiltrated the Customs House and gained information regarding security by pretending to be an intellectually disabled janitor.

Links: IMDB  – Trailer

Note: In English with English/French/Spanish Selectable Subtitles

DOWNLOAD

VIP

This content is reserved for registered users. Sign up here o login to be able to see it. Buy your VIP membership

FREE

  • The.Score.2001.2160p.HYBRID.HDR.WEB-DL.DTS-HD.MA.5.1.HEVC-AjA – 16.70GB (MEGA FOLDER VIP)

NFO

The.Score.2001.2160p.HYBRID.HDR.WEB-DL.DTS-HD.MA.5.1.HEVC-AjA

General
Unique ID : 156052168583149137969491467929054077270 (0x75668DEF85F5A510809C76E80BE7E156)
Complete name : The.Score.2001.2160p.HYBRID.HDR.WEB-DL.DTS-HD.MA.5.1.HEVC-AjA.mkv
Format : Matroska
Format version : Version 4
File size : 16.8 GiB
Duration : 2 h 4 min
Overall bit rate mode : Variable
Overall bit rate : 19.3 Mb/s
Encoded date : UTC 2022-05-01 20:00:34
Writing application : mkvmerge v66.0.0 (‘Josie’) 64-bit
Writing library : libebml v1.4.2 + libmatroska v1.6.4

Video
ID : 1
Format : HEVC
Format/Info : High Efficiency Video Coding
Format profile : Main [email protected]@High
HDR format : SMPTE ST 2086, HDR10 compatible
Codec ID : V_MPEGH/ISO/HEVC
Duration : 2 h 4 min
Bit rate : 14.5 Mb/s
Width : 3 840 pixels
Height : 1 634 pixels
Display aspect ratio : 2.35:1
Frame rate mode : Constant
Frame rate : 23.976 FPS
Color space : YUV
Chroma subsampling : 4:2:0 (Type 2)
Bit depth : 10 bits
Bits/(Pixel*Frame) : 0.097
Stream size : 12.6 GiB (75%)
Default : Yes
Forced : No
Color range : Limited
Color primaries : BT.2020
Transfer characteristics : PQ
Matrix coefficients : BT.2020 non-constant
Mastering display color primaries : Display P3
Mastering display luminance : min: 0.0050 cd/m2, max: 4000 cd/m2
Maximum Content Light Level : 1012 cd/m2
Maximum Frame-Average Light Level : 236 cd/m2

Audio #1
ID : 2
Format : E-AC-3
Format/Info : Enhanced AC-3
Commercial name : Dolby Digital Plus
Codec ID : A_EAC3
Duration : 2 h 4 min
Bit rate mode : Constant
Bit rate : 768 kb/s
Channel(s) : 6 channels
Channel layout : L R C LFE Ls Rs
Sampling rate : 48.0 kHz
Frame rate : 31.250 FPS (1536 SPF)
Compression mode : Lossy
Stream size : 682 MiB (4%)
Title : English E-AC3 5.1
Language : English
Service kind : Complete Main
Default : No
Forced : No

Audio #2
ID : 3
Format : DTS XLL
Format/Info : Digital Theater Systems
Commercial name : DTS-HD Master Audio
Codec ID : A_DTS
Duration : 2 h 4 min
Bit rate mode : Variable
Bit rate : 3 956 kb/s
Channel(s) : 6 channels
Channel layout : C L R Ls Rs LFE
Sampling rate : 48.0 kHz
Frame rate : 93.750 FPS (512 SPF)
Bit depth : 24 bits
Compression mode : Lossless
Delay relative to video : 4 ms
Stream size : 3.43 GiB (20%)
Title : 3955 kbps / 24-bit
Language : English
Default : Yes
Forced : No

Text #1
ID : 4
Format : PGS
Muxing mode : zlib
Codec ID : S_HDMV/PGS
Codec ID/Info : Picture based subtitle format used on BDs/HD-DVDs
Duration : 1 h 56 min
Bit rate : 30.6 kb/s
Count of elements : 2120
Stream size : 25.6 MiB (0%)
Language : English
Default : No
Forced : No

Text #2
ID : 5
Format : PGS
Muxing mode : zlib
Codec ID : S_HDMV/PGS
Codec ID/Info : Picture based subtitle format used on BDs/HD-DVDs
Duration : 1 h 57 min
Bit rate : 33.2 kb/s
Count of elements : 2372
Stream size : 27.9 MiB (0%)
Title : (SDH)
Language : English
Default : No
Forced : No

Text #3
ID : 6
Format : PGS
Muxing mode : zlib
Codec ID : S_HDMV/PGS
Codec ID/Info : Picture based subtitle format used on BDs/HD-DVDs
Duration : 1 h 56 min
Bit rate : 27.8 kb/s
Count of elements : 2126
Stream size : 23.2 MiB (0%)
Language : Danish
Default : No
Forced : No

Text #4
ID : 7
Format : PGS
Muxing mode : zlib
Codec ID : S_HDMV/PGS
Codec ID/Info : Picture based subtitle format used on BDs/HD-DVDs
Duration : 1 h 56 min
Bit rate : 27.8 kb/s
Count of elements : 2134
Stream size : 23.3 MiB (0%)
Language : French
Default : No
Forced : No

Text #5
ID : 8
Format : PGS
Muxing mode : zlib
Codec ID : S_HDMV/PGS
Codec ID/Info : Picture based subtitle format used on BDs/HD-DVDs
Duration : 1 h 56 min
Bit rate : 25.7 kb/s
Count of elements : 2128
Stream size : 21.5 MiB (0%)
Language : Finnish
Default : No
Forced : No

Text #6
ID : 9
Format : PGS
Muxing mode : zlib
Codec ID : S_HDMV/PGS
Codec ID/Info : Picture based subtitle format used on BDs/HD-DVDs
Duration : 1 h 56 min
Bit rate : 25.7 kb/s
Count of elements : 2128
Stream size : 21.5 MiB (0%)
Language : Norwegian
Default : No
Forced : No

Text #7
ID : 10
Format : PGS
Muxing mode : zlib
Codec ID : S_HDMV/PGS
Codec ID/Info : Picture based subtitle format used on BDs/HD-DVDs
Duration : 1 h 53 min
Bit rate : 28.5 kb/s
Count of elements : 2094
Stream size : 23.2 MiB (0%)
Language : Spanish
Default : No
Forced : No

Text #8
ID : 11
Format : PGS
Muxing mode : zlib
Codec ID : S_HDMV/PGS
Codec ID/Info : Picture based subtitle format used on BDs/HD-DVDs
Duration : 1 h 56 min
Bit rate : 24.2 kb/s
Count of elements : 2128
Stream size : 20.2 MiB (0%)
Language : Swedish
Default : No
Forced : No

Text #9
ID : 12
Format : PGS
Muxing mode : zlib
Codec ID : S_HDMV/PGS
Codec ID/Info : Picture based subtitle format used on BDs/HD-DVDs
Duration : 1 h 53 min
Bit rate : 24.6 kb/s
Count of elements : 2060
Stream size : 20.1 MiB (0%)
Language : Portuguese
Default : No
Forced : No

Text #10
ID : 13
Format : PGS
Muxing mode : zlib
Codec ID : S_HDMV/PGS
Codec ID/Info : Picture based subtitle format used on BDs/HD-DVDs
Duration : 1 h 58 min
Bit rate : 47.1 kb/s
Count of elements : 4790
Stream size : 40.0 MiB (0%)
Title : (Commentary)
Language : Spanish
Default : No
Forced : No

Menu
00:00:00.000 : en:Close Call
00:10:34.509 : en:Four Million Dollars
00:16:47.298 : en:Serious Thought
00:22:12.248 : en:You’re About To Give In
00:32:48.925 : en:The Set Up
00:37:45.388 : en:Mapping the Maze
00:46:36.460 : en:One Last Job
00:57:22.064 : en:Pass Codes
01:05:06.152 : en:Long Shots
01:10:02.949 : en:Too Risky
01:18:42.426 : en:Brian’s New Shoes
01:26:10.874 : en:The Break In
01:35:54.457 : en:Left Hanging
01:45:24.527 : en:Getaway
01:54:42.501 : en:What Have You Got?

(He/Him) He's BvSRips. I dedicate myself to sharing files on this blog for free. But it is difficult to maintain the links online for a long time, they are denounced and deleted, reuploading costs more work, that is why a section for VIP users was created, where they can download all the files published 100% in MEGA, as premium, without spend more. I would greatly appreciate your collaboration so that this blog remains online for a longer time.

BUY VIP HERE

Leave a Reply

Your email address will not be published. Required fields are marked *