The Sadness (2021) | 720p & 1080p & 2160p BluRay x265-BvS

The Sadness (2021)

After a year of combating a pandemic with relatively benign symptoms, a frustrated nation finally lets its guard down. This is when the virus spontaneously mutates, giving rise to a mind-altering plague. The streets erupt into violence and depravity, as those infected are driven to enact the most cruel and ghastly things they can think of. Murder, torture, rape and mutilation are only the beginning. A young couple is pushed to the limits of sanity as they try to reunite amid the chaos. The age of civility and order is no more. There is only “The Sadness”.

Links: iMDB | Trailer

Note: In English with English/German Selectable Subtitles

DOWNLOAD

VIP

This content is reserved for registered users. Sign up here o login to be able to see it. Buy your VIP membership

FREE

  • The.Sadness.2021.2160p.BluRay.HYBRID.DV.HDR10Plus.DTS-HD.MA.5.1.HEVC.REMUX-AjA – 59GB (ONLY VIP)

NFO

The.Sadness.2021.2160p.BluRay.HYBRID.DV.HDR10Plus.DTS-HD.MA.5.1.HEVC.REMUX-AjA

General
Unique ID : 339845124930290046677882754684154348912 (0xFFABCA4E330589936176F1792B090570)
Complete name : The.Sadness.2021.2160p.BluRay.HYBRID.DV.HDR10Plus.DTS-HD.MA.5.1.HEVC.REMUX-AjA.mkv
Format : Matroska
Format version : Version 4
File size : 59.5 GiB
Duration : 1 h 39 min
Overall bit rate mode : Variable
Overall bit rate : 85.2 Mb/s
Movie name : The Sadness
Encoded date : UTC 2022-04-15 23:39:59
Writing application : mkvmerge v66.0.0 (‘Josie’) 64-bit
Writing library : libebml v1.4.2 + libmatroska v1.6.4

Video
ID : 1
Format : HEVC
Format/Info : High Efficiency Video Coding
Format profile : Main [email protected]@High
HDR format : Dolby Vision, Version 1.0, dvhe.08.06, BL+RPU, HDR10 compatible / SMPTE ST 2094 App 4, Version 1, HDR10+ Profile B compatible
Codec ID : V_MPEGH/ISO/HEVC
Duration : 1 h 39 min
Bit rate : 81.7 Mb/s
Width : 3 840 pixels
Height : 2 160 pixels
Display aspect ratio : 16:9
Frame rate mode : Constant
Frame rate : 24.000 FPS
Color space : YUV
Chroma subsampling : 4:2:0 (Type 2)
Bit depth : 10 bits
Bits/(Pixel*Frame) : 0.410
Stream size : 57.1 GiB (96%)
Default : Yes
Forced : No
Color range : Limited
Color primaries : BT.2020
Transfer characteristics : PQ
Matrix coefficients : BT.2020 non-constant
Mastering display color primaries : Display P3
Mastering display luminance : min: 0.0001 cd/m2, max: 1000 cd/m2
Maximum Content Light Level : 3560 cd/m2
Maximum Frame-Average Light Level : 427 cd/m2

Audio #1
ID : 2
ID in the original source medium : 4353 (0x1101)
Format : DTS XLL
Format/Info : Digital Theater Systems
Commercial name : DTS-HD Master Audio
Codec ID : A_DTS
Duration : 1 h 39 min
Bit rate mode : Variable
Bit rate : 1 942 kb/s
Channel(s) : 6 channels
Channel layout : C L R Ls Rs LFE
Sampling rate : 48.0 kHz
Frame rate : 93.750 FPS (512 SPF)
Bit depth : 16 bits
Compression mode : Lossless
Stream size : 1.36 GiB (2%)
Title : Surround 5.1
Language : Chinese
Default : Yes
Forced : No
Original source medium : Blu-ray

Audio #2
ID : 3
ID in the original source medium : 4353 (0x1101)
Format : DTS
Format/Info : Digital Theater Systems
Codec ID : A_DTS
Duration : 1 h 39 min
Bit rate mode : Constant
Bit rate : 1 509 kb/s
Channel(s) : 6 channels
Channel layout : C L R Ls Rs LFE
Sampling rate : 48.0 kHz
Frame rate : 93.750 FPS (512 SPF)
Bit depth : 16 bits
Compression mode : Lossy
Stream size : 1.05 GiB (2%)
Title : Surround 5.1
Language : Chinese
Default : No
Forced : No
Original source medium : Blu-ray

Text #1
ID : 4
ID in the original source medium : 4768 (0x12A0)
Format : PGS
Muxing mode : zlib
Codec ID : S_HDMV/PGS
Codec ID/Info : Picture based subtitle format used on BDs/HD-DVDs
Duration : 1 h 32 min
Bit rate : 21.5 kb/s
Count of elements : 1250
Stream size : 14.2 MiB (0%)
Language : German
Default : No
Forced : No
Original source medium : Blu-ray

Text #2
ID : 5
ID in the original source medium : 4769 (0x12A1)
Format : PGS
Muxing mode : zlib
Codec ID : S_HDMV/PGS
Codec ID/Info : Picture based subtitle format used on BDs/HD-DVDs
Duration : 1 h 32 min
Bit rate : 19.6 kb/s
Count of elements : 1434
Stream size : 13.0 MiB (0%)
Language : English
Default : No
Forced : No
Original source medium : Blu-ray

Text #3
ID : 6
ID in the original source medium : 4770 (0x12A2)
Format : PGS
Muxing mode : zlib
Codec ID : S_HDMV/PGS
Codec ID/Info : Picture based subtitle format used on BDs/HD-DVDs
Duration : 1 h 32 min
Bit rate : 15.6 kb/s
Count of elements : 1410
Stream size : 10.4 MiB (0%)
Language : Chinese
Default : No
Forced : No
Original source medium : Blu-ray

Text #4
ID : 7
ID in the original source medium : 4771 (0x12A3)
Format : PGS
Muxing mode : zlib
Codec ID : S_HDMV/PGS
Codec ID/Info : Picture based subtitle format used on BDs/HD-DVDs
Duration : 1 h 13 min
Bit rate : 547 b/s
Count of elements : 20
Stream size : 293 KiB (0%)
Language : German
Default : No
Forced : No
Original source medium : Blu-ray

Menu
00:00:00.000 : en:Chapter 01
00:08:05.666 : en:Chapter 02
00:16:42.708 : en:Chapter 03
00:23:03.375 : en:Chapter 04
00:32:02.625 : en:Chapter 05
00:41:15.000 : en:Chapter 06
00:49:36.791 : en:Chapter 07
00:57:08.208 : en:Chapter 08
01:05:20.666 : en:Chapter 09
01:13:18.916 : en:Chapter 10
01:19:43.041 : en:Chapter 11
01:29:17.875 : en:Chapter 12

 

(He/Him) He's BvSRips. I dedicate myself to sharing files on this blog for free. But it is difficult to maintain the links online for a long time, they are denounced and deleted, reuploading costs more work, that is why a section for VIP users was created, where they can download all the files published 100% in MEGA, as premium, without spend more. I would greatly appreciate your collaboration so that this blog remains online for a longer time.

BUY VIP HERE

Leave a Reply

Your email address will not be published. Required fields are marked *