The Man With the Golden Gun (1974) | 720p & 1080p & 2160p BluRay x265-BvS

The Man With the Golden Gun (1974)

James Bond is targeted by the world’s most expensive assassin, while he attempts to recover sensitive solar cell technology that is being sold to the highest bidder.

Links: IMDB  – Trailer

Note: In English with English/Spanish/Portuguese Selectable Subtitles

DOWNLOAD

VIP

This content is reserved for registered users. Sign up here o login to be able to see it. Buy your VIP membership

FREE

  • The.Man.With.the.Golden.Gun.1974.2160p.WEB-DL.DTS-HD.MA.5.1.HEVC-AjA – 22.20GB (ONLY VIP)

NFO

The.Man.With.the.Golden.Gun.1974.2160p.WEB-DL.DTS-HD.MA.5.1.HEVC-AjA

General
Unique ID : 194935959762388883481059545745244215824 (0x92A74CDADA4131198C42CF34E9EEDA10)
Complete name: The.Man.With.the.Golden.Gun.1974.2160p.WEB-DL.DTS-HD.MA.5.1.HEVC-AjA.mkv
Format : Matroska
Format version : Version 4
File size : 22.3 GiB
Duration : 2 h 5 min
Overall bit rate mode : Variable
Overall bit rate : 25.4 Mb/s
Movie name : The Man With the Golden Gun (1974)
Encoded date : UTC 2022-05-05 23:57:01
Writing application : mkvmerge v66.0.0 (‘Josie’) 64-bit
Writing library : libebml v1.4.2 + libmatroska v1.6.4

Video
ID : 1
Format : HEVC
Format/Info : High Efficiency Video Coding
Format profile : Main [email protected]@High
Codec ID : V_MPEGH/ISO/HEVC
Duration : 2 h 5 min
Bit rate : 20.8 Mb/s
Width : 3 824 pixels
Height : 2 070 pixels
Display aspect ratio : 1.85:1
Frame rate mode : Constant
Frame rate : 23.976 (23976/1000) FPS
Color space : YUV
Chroma subsampling : 4:2:0
Bit depth : 10 bits
Bits/(Pixel*Frame) : 0.110
Stream size : 18.2 GiB (82%)
Default : Yes
Forced : No
Color range : Limited
Color primaries : BT.709
Transfer characteristics : BT.709
Matrix coefficients : BT.709

Audio #1
ID : 2
Format : DTS XLL
Format/Info : Digital Theater Systems
Commercial name : DTS-HD Master Audio
Codec ID : A_DTS
Duration : 2 h 5 min
Bit rate mode : Variable
Bit rate : 3 818 kb/s
Channel(s) : 6 channels
Channel layout : C L R Ls Rs LFE
Sampling rate : 48.0 kHz
Frame rate : 93.750 FPS (512 SPF)
Bit depth : 24 bits
Compression mode : Lossless
Delay relative to video : 5 s 215 ms
Stream size : 3.34 GiB (15%)
Language : English
Default : Yes
Forced : No

Audio #2
ID : 3
Format : AC-3
Format/Info : Audio Coding 3
Commercial name : Dolby Digital
Codec ID : A_AC3
Duration : 2 h 5 min
Bit rate mode : Constant
Bit rate : 384 kb/s
Channel(s) : 6 channels
Channel layout : L R C LFE Ls Rs
Sampling rate : 48.0 kHz
Frame rate : 31.250 FPS (1536 SPF)
Compression mode : Lossy
Stream size : 344 MiB (2%)
Title : British
Language : English
Service kind : Complete Main
Default : No
Forced : No

Audio #3
ID : 4
Format : AC-3
Format/Info : Audio Coding 3
Commercial name : Dolby Digital
Codec ID : A_AC3
Duration : 2 h 5 min
Bit rate mode : Constant
Bit rate : 224 kb/s
Channel(s) : 2 channels
Channel layout : L R
Sampling rate : 48.0 kHz
Frame rate : 31.250 FPS (1536 SPF)
Compression mode : Lossy
Delay relative to video : 5 s 215 ms
Stream size : 201 MiB (1%)
Title : Commentary with Sir Roger Moore
Language : English
Service kind : Complete Main
Default : No
Forced : No

Audio #4
ID : 5
Format : AC-3
Format/Info : Audio Coding 3
Commercial name : Dolby Digital
Codec ID : A_AC3
Duration : 2 h 5 min
Bit rate mode : Constant
Bit rate : 224 kb/s
Channel(s) : 2 channels
Channel layout : L R
Sampling rate : 48.0 kHz
Frame rate : 31.250 FPS (1536 SPF)
Compression mode : Lossy
Delay relative to video : 5 s 215 ms
Stream size : 201 MiB (1%)
Title : Commentary with director Guy Hamilton and members of the cast and crew
Language : English
Service kind : Complete Main
Default : No
Forced : No

Text #1
ID : 6
Format : UTF-8
Codec ID : S_TEXT/UTF8
Codec ID/Info : UTF-8 Plain Text
Duration : 2 h 1 min
Bit rate : 38 b/s
Count of elements : 1022
Stream size : 34.7 KiB (0%)
Language : English
Default : No
Forced : No

Text #2
ID : 7
Format : UTF-8
Codec ID : S_TEXT/UTF8
Codec ID/Info : UTF-8 Plain Text
Duration : 2 h 3 min
Bit rate : 39 b/s
Count of elements : 1025
Stream size : 35.4 KiB (0%)
Title : Latin American
Language : Spanish
Default : No
Forced : No

Text #3
ID : 8
Format : UTF-8
Codec ID : S_TEXT/UTF8
Codec ID/Info : UTF-8 Plain Text
Duration : 2 h 1 min
Bit rate : 37 b/s
Count of elements : 859
Stream size : 33.6 KiB (0%)
Language : French
Default : No
Forced : No

Text #4
ID : 9
Format : UTF-8
Codec ID : S_TEXT/UTF8
Codec ID/Info : UTF-8 Plain Text
Duration : 2 h 1 min
Bit rate : 35 b/s
Count of elements : 975
Stream size : 31.4 KiB (0%)
Title : Brazilian
Language : Portuguese
Default : No
Forced : No

Menu
00:00:05.215 : :Logo/Deadly Game
00:08:23.296 : :Credits/Main Title
00:10:55.031 : :Marked Man
00:15:03.988 : :Lucky Charm
00:20:03.621 : :Magic Bullet
00:21:37.089 : :Gun Master
00:25:01.960 : :Lady Killer
00:28:08.355 : :”A Water Pistol?”
00:33:23.211 : :Misfire
00:36:47.790 : :Captive
00:39:46.344 : :Welcome Aboard
00:44:09.482 : :Titillating Meeting
00:48:33.203 : :Hungry Go Bed
00:51:56.823 : :Heaven and Hell
00:56:51.493 : :Girl Power
00:58:48.526 : :Motorboat Mayhem
01:03:29.015 : :New Boss
01:05:30.470 : :This Moment
01:07:58.701 : :Man in the Middle
01:14:58.412 : :”An Eye for an Eye”
01:19:28.015 : :Chasing Goodnight
01:27:22.447 : :Metamorphosis
01:31:11.885 : :Goodnight’s Signal
01:33:53.379 : :Expected Guess
01:37:02.610 : :Solar Power Monopoly
01:42:07.665 : :A Killer Lunch
01:45:36.457 : :Showdown
01:48:35.427 : :Fun Palace
01:52:43.216 : :Island Escape
01:58:59.842 : :Little Rascal
02:02:04.944 : :”Goodnight, Sir!”
02:03:46.629 : :End Credits

 

(He/Him) He's BvSRips. I dedicate myself to sharing files on this blog for free. But it is difficult to maintain the links online for a long time, they are denounced and deleted, reuploading costs more work, that is why a section for VIP users was created, where they can download all the files published 100% in MEGA, as premium, without spend more. I would greatly appreciate your collaboration so that this blog remains online for a longer time.

BUY VIP HERE

Leave a Reply

Your email address will not be published. Required fields are marked *