The Living Daylights (1987) | 720p & 1080p & 2160p BluRay x265-BvS

The Living Daylights (1987)

James Bond is sent to investigate a KGB policy to kill all enemy spies and uncovers an arms deal that potentially has major global ramifications.

Links: IMDB  – Trailer

Note: In English with English/Spanish/French/Portuguese Selectable Subtitles

DOWNLOAD

VIP

This content is reserved for registered users. Sign up here o login to be able to see it. Buy your VIP membership

FREE

  • The.Living.Daylights.1987.2160p.WEB-DL.DTS-HD.MA.5.1.HEVC-AjA – 21GB (ONLY VIP)

NFO

The.Living.Daylights.1987.2160p.WEB-DL.DTS-HD.MA.5.1.HEVC-AjA

General
Complete name : The.Living.Daylights.1987.2160p.WEB-DL.DTS-HD.MA.5.1.HEVC-AjA.mkv
Format : Matroska
Format version : Version 4
File size : 21.7 GiB
Duration : 2 h 10 min
Overall bit rate mode : Variable
Overall bit rate : 23.8 Mb/s
Movie name : The Living Daylights (1987)
Encoded date : UTC 2022-05-06 02:51:39
Writing application : mkvmerge v66.0.0 (‘Josie’) 64-bit
Writing library : libebml v1.4.2 + libmatroska v1.6.4

Video
ID : 1
Format : HEVC
Format/Info : High Efficiency Video Coding
Format profile : Main [email protected]@High
Codec ID : V_MPEGH/ISO/HEVC
Duration : 2 h 10 min
Bit rate : 20.7 Mb/s
Width : 3 840 pixels
Height : 1 630 pixels
Display aspect ratio : 2.35:1
Frame rate mode : Constant
Frame rate : 23.976 (23976/1000) FPS
Color space : YUV
Chroma subsampling : 4:2:0
Bit depth : 10 bits
Bits/(Pixel*Frame) : 0.138
Stream size : 18.9 GiB (87%)
Default : Yes
Forced : No
Color range : Limited
Color primaries : BT.709
Transfer characteristics : BT.709
Matrix coefficients : BT.709

Audio #1
ID : 2
Format : DTS XLL
Format/Info : Digital Theater Systems
Commercial name : DTS-HD Master Audio
Codec ID : A_DTS
Duration : 2 h 10 min
Bit rate mode : Variable
Bit rate : 2 707 kb/s
Channel(s) : 6 channels
Channel layout : C L R Ls Rs LFE
Sampling rate : 48.0 kHz
Frame rate : 93.750 FPS (512 SPF)
Bit depth : 24 bits
Compression mode : Lossless
Delay relative to video : 6 s 229 ms
Stream size : 2.47 GiB (11%)
Language : English
Default : Yes
Forced : No

Audio #2
ID : 3
Format : AC-3
Format/Info : Audio Coding 3
Commercial name : Dolby Digital
Codec ID : A_AC3
Duration : 2 h 10 min
Bit rate mode : Constant
Bit rate : 384 kb/s
Channel(s) : 6 channels
Channel layout : L R C LFE Ls Rs
Sampling rate : 48.0 kHz
Frame rate : 31.250 FPS (1536 SPF)
Compression mode : Lossy
Stream size : 359 MiB (2%)
Title : British
Language : English
Service kind : Complete Main
Default : No
Forced : No

Text #1
ID : 4
Format : UTF-8
Codec ID : S_TEXT/UTF8
Codec ID/Info : UTF-8 Plain Text
Duration : 2 h 7 min
Bit rate : 31 b/s
Count of elements : 756
Stream size : 29.1 KiB (0%)
Language : English
Default : No
Forced : No

Text #2
ID : 5
Format : UTF-8
Codec ID : S_TEXT/UTF8
Codec ID/Info : UTF-8 Plain Text
Duration : 2 h 7 min
Bit rate : 33 b/s
Count of elements : 921
Stream size : 31.5 KiB (0%)
Title : Latin American
Language : Spanish
Default : No
Forced : No

Text #3
ID : 6
Format : UTF-8
Codec ID : S_TEXT/UTF8
Codec ID/Info : UTF-8 Plain Text
Duration : 2 h 9 min
Bit rate : 29 b/s
Count of elements : 748
Stream size : 28.1 KiB (0%)
Language : French
Default : No
Forced : No

Text #4
ID : 7
Format : UTF-8
Codec ID : S_TEXT/UTF8
Codec ID/Info : UTF-8 Plain Text
Duration : 2 h 7 min
Bit rate : 31 b/s
Count of elements : 909
Stream size : 29.4 KiB (0%)
Title : Brazilian
Language : Portuguese
Default : No
Forced : No

Menu
00:00:06.229 : :Only an Exercise
00:07:38.973 : :Title
00:10:24.972 : :Vienna
00:14:08.445 : :Koskov Escapes
00:17:08.876 : :It’s a Gas
00:22:26.485 : :Gadgets
00:28:19.170 : :The Milkman Cometh
00:31:49.380 : :Laughing Stock
00:36:04.552 : :Cellist
00:39:44.438 : :Apartment
00:42:33.816 : :Phoney Booth
00:45:00.379 : :Chase
00:50:47.184 : :Pushkin
00:57:18.283 : :Refund
00:59:08.476 : :Cello
01:02:37.393 : :Big Wheel
01:07:42.448 : :Room Service
01:12:48.587 : :Assassin
01:17:45.884 : :Set Up
01:20:33.051 : :Up in the Air
01:24:24.574 : :Afghanistahn
01:28:59.932 : :Escape
01:33:22.403 : :Bedouin
01:37:10.297 : :Smuggling
01:42:27.406 : :Airbase
01:49:31.496 : :Departure
01:52:10.697 : :Turbulence
01:56:58.860 : :Bridgebusters
01:58:41.837 : :Disembarkment
02:00:52.009 : :Karachi
02:05:37.962 : :Solo
02:08:19.623 : :Credits

(He/Him) He's BvSRips. I dedicate myself to sharing files on this blog for free. But it is difficult to maintain the links online for a long time, they are denounced and deleted, reuploading costs more work, that is why a section for VIP users was created, where they can download all the files published 100% in MEGA, as premium, without spend more. I would greatly appreciate your collaboration so that this blog remains online for a longer time.

BUY VIP HERE

Leave a Reply

Your email address will not be published. Required fields are marked *