The Hangover Part II (2011) | 720p & 1080p & 2160p BluRay x265-BvS

The Hangover Part II (2011)

Two years after the events in Las Vegas, Stu, Phil, Alan, and Doug travel to Thailand to celebrate Stu’s upcoming wedding and much to Alan’s dismay, they are joined by Lauren’s younger brother, Teddy. As the night ticks on, the friends suddenly find themselves lost in the city without any idea of what happened.

Links : iMDB

Note: In English with English/Spanish/French/German Selectable Subtitles

DOWNLOAD

VIP

This content is reserved for registered users. Sign up here o login to be able to see it. Buy your VIP membership

FREE

  • The.Hangover.Part.II.2011.2160p.HYBRID.DV.WEB-DL.DTS-HD.MA.5.1.HEVC-AjA – 20.60GB (ONLY VIP)

NFO

The.Hangover.Part.II.2011.2160p.HYBRID.DV.WEB-DL.DTS-HD.MA.5.1.HEVC-AjA

General
Unique ID : 281655830842082786025764276630913234789 (0xD3E4F09ADC9DFBC98A9CF3AEE9BB3765)
Complete name : The.Hangover.Part.II.2011.2160p.HYBRID.DV.WEB-DL.DTS-HD.MA.5.1.HEVC-AjA.mkv
Format : Matroska
Format version : Version 4
File size : 20.7 GiB
Duration : 1 h 41 min
Overall bit rate mode : Variable
Overall bit rate : 29.0 Mb/s
Encoded date : UTC 2022-04-28 06:13:42
Writing application : mkvmerge v66.0.0 (‘Josie’) 64-bit
Writing library : libebml v1.4.2 + libmatroska v1.6.4

Video
ID : 1
Format : HEVC
Format/Info : High Efficiency Video Coding
Format profile : Main [email protected]@High
HDR format : Dolby Vision, Version 1.0, dvhe.05.06, BL+RPU
Codec ID : V_MPEGH/ISO/HEVC
Duration : 1 h 41 min
Bit rate : 24.6 Mb/s
Width : 3 840 pixels
Height : 1 600 pixels
Display aspect ratio : 2.40:1
Frame rate mode : Constant
Frame rate : 23.976 (24000/1001) FPS
Color space : YUV
Chroma subsampling : 4:2:0
Bit depth : 10 bits
Bits/(Pixel*Frame) : 0.167
Stream size : 17.5 GiB (85%)
Default : Yes
Forced : No

Audio #1
ID : 2
Format : DTS XLL
Format/Info : Digital Theater Systems
Commercial name : DTS-HD Master Audio
Codec ID : A_DTS
Duration : 1 h 41 min
Bit rate mode : Variable
Bit rate : 4 002 kb/s
Channel(s) : 6 channels
Channel layout : C L R Ls Rs LFE
Sampling rate : 48.0 kHz
Frame rate : 93.750 FPS (512 SPF)
Bit depth : 24 bits
Compression mode : Lossless
Delay relative to video : 1 s 446 ms
Stream size : 2.85 GiB (14%)
Language : English
Default : Yes
Forced : No

Audio #2
ID : 3
Format : AC-3
Format/Info : Audio Coding 3
Commercial name : Dolby Digital
Codec ID : A_AC3
Duration : 1 h 41 min
Bit rate mode : Constant
Bit rate : 384 kb/s
Channel(s) : 6 channels
Channel layout : L R C LFE Ls Rs
Sampling rate : 48.0 kHz
Frame rate : 31.250 FPS (1536 SPF)
Compression mode : Lossy
Stream size : 280 MiB (1%)
Language : English
Service kind : Complete Main
Default : No
Forced : No

Text #1
ID : 4
Format : UTF-8
Codec ID : S_TEXT/UTF8
Codec ID/Info : UTF-8 Plain Text
Duration : 2 s 461 ms
Bit rate : 52 b/s
Count of elements : 1
Stream size : 16.0 Bytes (0%)
Title : English Forced
Language : English
Default : Yes
Forced : Yes

Text #2
ID : 5
Format : UTF-8
Codec ID : S_TEXT/UTF8
Codec ID/Info : UTF-8 Plain Text
Duration : 1 h 40 min
Bit rate : 59 b/s
Count of elements : 1100
Stream size : 43.9 KiB (0%)
Title : Danish
Language : Danish
Default : No
Forced : No

Text #3
ID : 6
Format : UTF-8
Codec ID : S_TEXT/UTF8
Codec ID/Info : UTF-8 Plain Text
Duration : 1 h 41 min
Bit rate : 87 b/s
Count of elements : 1724
Stream size : 64.6 KiB (0%)
Title : German
Language : German
Default : No
Forced : No

Text #4
ID : 7
Format : UTF-8
Codec ID : S_TEXT/UTF8
Codec ID/Info : UTF-8 Plain Text
Duration : 1 h 40 min
Bit rate : 103 b/s
Count of elements : 1406
Stream size : 76.5 KiB (0%)
Title : Greek
Language : Greek
Default : No
Forced : No

Text #5
ID : 8
Format : UTF-8
Codec ID : S_TEXT/UTF8
Codec ID/Info : UTF-8 Plain Text
Duration : 1 h 40 min
Bit rate : 75 b/s
Count of elements : 1680
Stream size : 55.8 KiB (0%)
Title : English
Language : English
Default : No
Forced : No

Text #6
ID : 9
Format : UTF-8
Codec ID : S_TEXT/UTF8
Codec ID/Info : UTF-8 Plain Text
Duration : 1 h 38 min
Bit rate : 85 b/s
Count of elements : 2244
Stream size : 62.0 KiB (0%)
Title : English CC
Language : English
Default : No
Forced : No

Text #7
ID : 10
Format : UTF-8
Codec ID : S_TEXT/UTF8
Codec ID/Info : UTF-8 Plain Text
Duration : 1 h 40 min
Bit rate : 69 b/s
Count of elements : 1627
Stream size : 51.0 KiB (0%)
Title : Spanish Latin American
Language : Spanish
Default : No
Forced : No

Text #8
ID : 11
Format : UTF-8
Codec ID : S_TEXT/UTF8
Codec ID/Info : UTF-8 Plain Text
Duration : 1 h 40 min
Bit rate : 47 b/s
Count of elements : 1171
Stream size : 34.8 KiB (0%)
Title : Finnish
Language : Finnish
Default : No
Forced : No

Text #9
ID : 12
Format : UTF-8
Codec ID : S_TEXT/UTF8
Codec ID/Info : UTF-8 Plain Text
Duration : 1 h 40 min
Bit rate : 52 b/s
Count of elements : 1495
Stream size : 38.6 KiB (0%)
Title : French Canadian
Language : French
Default : No
Forced : No

Text #10
ID : 13
Format : UTF-8
Codec ID : S_TEXT/UTF8
Codec ID/Info : UTF-8 Plain Text
Duration : 1 h 40 min
Bit rate : 71 b/s
Count of elements : 1682
Stream size : 52.8 KiB (0%)
Title : Italian
Language : Italian
Default : No
Forced : No

Text #11
ID : 14
Format : UTF-8
Codec ID : S_TEXT/UTF8
Codec ID/Info : UTF-8 Plain Text
Duration : 1 h 36 min
Bit rate : 51 b/s
Count of elements : 1538
Stream size : 36.2 KiB (0%)
Title : Japanese
Language : Japanese
Default : No
Forced : No

Text #12
ID : 15
Format : UTF-8
Codec ID : S_TEXT/UTF8
Codec ID/Info : UTF-8 Plain Text
Duration : 1 h 36 min
Bit rate : 70 b/s
Count of elements : 1505
Stream size : 49.6 KiB (0%)
Title : Korean
Language : Korean
Default : No
Forced : No

Text #13
ID : 16
Format : UTF-8
Codec ID : S_TEXT/UTF8
Codec ID/Info : UTF-8 Plain Text
Duration : 1 h 40 min
Bit rate : 54 b/s
Count of elements : 1124
Stream size : 40.3 KiB (0%)
Title : Dutch
Language : Dutch
Default : No
Forced : No

Text #14
ID : 17
Format : UTF-8
Codec ID : S_TEXT/UTF8
Codec ID/Info : UTF-8 Plain Text
Duration : 1 h 40 min
Bit rate : 56 b/s
Count of elements : 1147
Stream size : 41.8 KiB (0%)
Title : Norwegian
Language : Norwegian
Default : No
Forced : No

Text #15
ID : 18
Format : UTF-8
Codec ID : S_TEXT/UTF8
Codec ID/Info : UTF-8 Plain Text
Duration : 1 h 36 min
Bit rate : 69 b/s
Count of elements : 1620
Stream size : 48.9 KiB (0%)
Title : Portuguese Brazilian
Language : Portuguese
Default : No
Forced : No

Text #16
ID : 19
Format : UTF-8
Codec ID : S_TEXT/UTF8
Codec ID/Info : UTF-8 Plain Text
Duration : 1 h 40 min
Bit rate : 55 b/s
Count of elements : 1069
Stream size : 40.8 KiB (0%)
Title : Swedish
Language : Swedish
Default : No
Forced : No

Menu
00:00:00.000 : en:Chapter 1.
00:08:58.000 : en:Chapter 2.
00:17:00.000 : en:Chapter 3.
00:24:17.000 : en:Chapter 4.
00:33:56.000 : en:Chapter 5.
00:44:17.000 : en:Chapter 6.
00:54:53.000 : en:Chapter 7.
01:04:50.000 : en:Chapter 8.
01:13:37.000 : en:Chapter 9.
01:23:28.000 : en:Chapter 10.
01:32:54.000 : en:Chapter 11.
01:36:59.000 : en:Chapter 12.

 

(He/Him) He's BvSRips. I dedicate myself to sharing files on this blog for free. But it is difficult to maintain the links online for a long time, they are denounced and deleted, reuploading costs more work, that is why a section for VIP users was created, where they can download all the files published 100% in MEGA, as premium, without spend more. I would greatly appreciate your collaboration so that this blog remains online for a longer time.

BUY VIP HERE

Leave a Reply

Your email address will not be published. Required fields are marked *