The Hangover (2009) | 720p & 1080p & 2160p BluRay x265-BvS

A night debauchery in Las Vegas goes massively awry when three groomsmen lose their best friend during his bachelor party, just days before his impending wedding.

Links: IMDB  – Trailer

Note: In English with English/German/Spanish/French Selectable Subtitles

DOWNLOAD

VIP

This content is reserved for registered users. Sign up here o login to be able to see it. Buy your VIP membership

FREE

  • The.Hangover.2009.2160p.HYBRID.DV.WEB-DL.TrueHD.5.1.HEVC-AjA – 18.40GB (ONLY  VIP)

NFO

The.Hangover.2009.2160p.HYBRID.DV.WEB-DL.TrueHD.5.1.HEVC-AjA

General
Unique ID : 320251231358929443263270180310385702204 (0xF0EE24C44984A47418420C383974353C)
Complete name : The.Hangover.2009.2160p.HYBRID.DV.WEB-DL.TrueHD.5.1.HEVC-AjA.mkv
Format : Matroska
Format version : Version 4
File size : 18.5 GiB
Duration : 1 h 39 min
Overall bit rate mode : Variable
Overall bit rate : 26.5 Mb/s
Encoded date : UTC 2022-04-28 03:26:14
Writing application : mkvmerge v66.0.0 (‘Josie’) 64-bit
Writing library : libebml v1.4.2 + libmatroska v1.6.4

Video
ID : 1
Format : HEVC
Format/Info : High Efficiency Video Coding
Format profile : Main [email protected]@High
HDR format : Dolby Vision, Version 1.0, dvhe.05.06, BL+RPU
Codec ID : V_MPEGH/ISO/HEVC
Duration : 1 h 39 min
Bit rate : 24.7 Mb/s
Width : 3 840 pixels
Height : 1 600 pixels
Display aspect ratio : 2.40:1
Frame rate mode : Constant
Frame rate : 23.976 (24000/1001) FPS
Color space : YUV
Chroma subsampling : 4:2:0
Bit depth : 10 bits
Bits/(Pixel*Frame) : 0.168
Stream size : 17.2 GiB (93%)
Default : Yes
Forced : No

Audio #1
ID : 2
Format : MLP FBA
Format/Info : Meridian Lossless Packing FBA
Commercial name : Dolby TrueHD
Codec ID : A_TRUEHD
Duration : 1 h 39 min
Bit rate mode : Variable
Bit rate : 1 375 kb/s
Maximum bit rate : 2 601 kb/s
Channel(s) : 6 channels
Channel layout : L R C LFE Ls Rs
Sampling rate : 48.0 kHz
Frame rate : 1 200.000 FPS (40 SPF)
Compression mode : Lossless
Stream size : 981 MiB (5%)
Language : English
Default : Yes
Forced : No

Audio #2
ID : 3
Format : AC-3
Format/Info : Audio Coding 3
Commercial name : Dolby Digital
Codec ID : A_AC3
Duration : 1 h 39 min
Bit rate mode : Constant
Bit rate : 384 kb/s
Channel(s) : 6 channels
Channel layout : L R C LFE Ls Rs
Sampling rate : 48.0 kHz
Frame rate : 31.250 FPS (1536 SPF)
Compression mode : Lossy
Stream size : 274 MiB (1%)
Language : English
Service kind : Complete Main
Default : Yes
Forced : No

Text #1
ID : 4
Format : UTF-8
Codec ID : S_TEXT/UTF8
Codec ID/Info : UTF-8 Plain Text
Duration : 1 h 37 min
Bit rate : 98 b/s
Count of elements : 2237
Stream size : 70.7 KiB (0%)
Title : English CC
Language : English
Default : No
Forced : No

Text #2
ID : 5
Format : UTF-8
Codec ID : S_TEXT/UTF8
Codec ID/Info : UTF-8 Plain Text
Duration : 1 h 35 min
Bit rate : 57 b/s
Count of elements : 1598
Stream size : 40.0 KiB (0%)
Title : Japanese
Language : Japanese
Default : No
Forced : No

Text #3
ID : 6
Format : UTF-8
Codec ID : S_TEXT/UTF8
Codec ID/Info : UTF-8 Plain Text
Duration : 1 h 35 min
Bit rate : 68 b/s
Count of elements : 1481
Stream size : 47.8 KiB (0%)
Title : Korean
Language : Korean
Default : No
Forced : No

Menu
00:00:00.000 : en:Not gonna happen (Credits).
00:03:41.000 : en:Mature friends.
00:09:13.000 : en:Is he all there?
00:14:09.000 : en:Letting the dogs out.
00:18:58.000 : en:Wolf pack.
00:23:18.000 : en:Not-good morning.
00:29:00.000 : en:Which part is fun?
00:34:04.000 : en:Hospital visit.
00:37:04.000 : en:Here bums the groom.
00:39:55.000 : en:Start the tractor.
00:42:52.000 : en:Loserville.
00:47:36.000 : en:Target practice.
00:52:10.000 : en:Revelations by the trunkload.
00:57:50.000 : en:That was Mike Tyson.
01:01:11.000 : en:What do tigers dream of?
01:05:31.000 : en:On camera.
01:08:01.000 : en:Lucky charm.
01:12:35.000 : en:All in the cards.
01:16:27.000 : en:Mixed up the bags.
01:22:44.000 : en:Doug’s location.
01:25:54.000 : en:Making their date.
01:30:26.000 : en:Marriage vow.
01:32:53.000 : en:Not how this works.
01:36:06.000 : en:Evidence and End Credits.

(He/Him) He's BvSRips. I dedicate myself to sharing files on this blog for free. But it is difficult to maintain the links online for a long time, they are denounced and deleted, reuploading costs more work, that is why a section for VIP users was created, where they can download all the files published 100% in MEGA, as premium, without spend more. I would greatly appreciate your collaboration so that this blog remains online for a longer time.

BUY VIP HERE

Leave a Reply

Your email address will not be published. Required fields are marked *