The Electrical Life of Louis Wain (2021) | 720p & 1080p & 2160p BluRay x265-BvS

The Electrical Life of Louis Wain (2021)

English artist Louis Wain rises to prominence at the end of the 19th century for his surreal cat paintings that seemed to reflect his declining sanity.

Links: iMDB | Trailer

Note: In English with English Selectable Subtitles

DOWNLOAD

VIP

This content is reserved for registered users. Sign up here o login to be able to see it. Buy your VIP membership

FREE

NFO

The.Electrical.Life.of.Louis.Wain.2021.2160p.AMZN.WEB-DL.DDP5.1.HDR.HEVC-CM

General
Unique ID : 11263318088009952642164349402416556138 (0x8793C74D7DBAB4A47E57882BADE286A)
Complete name : The.Electrical.Life.of.Louis.Wain.2021.2160p.AMZN.WEB-DL.DDP5.1.HDR.HEVC-CM.mkv
Format : Matroska
Format version : Version 4
File size : 12.1 GiB
Duration : 1 h 51 min
Overall bit rate : 15.6 Mb/s
Encoded date : UTC 2021-11-05 00:04:28
Writing application : mkvmerge v50.0.0 (‘Awakenings’) 64-bit
Writing library : libebml v1.4.0 + libmatroska v1.6.2

Video
ID : 1
Format : HEVC
Format/Info : High Efficiency Video Coding
Format profile : Main [email protected]@Main
HDR format : SMPTE ST 2094 App 4, Version 1, HDR10+ Profile B compatible
Codec ID : V_MPEGH/ISO/HEVC
Duration : 1 h 51 min
Bit rate : 14.9 Mb/s
Width : 3 840 pixels
Height : 2 160 pixels
Display aspect ratio : 16:9
Frame rate mode : Constant
Frame rate : 23.976 (24000/1001) FPS
Color space : YUV
Chroma subsampling : 4:2:0
Bit depth : 10 bits
Bits/(Pixel*Frame) : 0.075
Stream size : 11.6 GiB (96%)
Default : Yes
Forced : No
Color range : Limited
Color primaries : BT.2020
Transfer characteristics : PQ
Matrix coefficients : BT.2020 non-constant
Mastering display color primaries : Display P3
Mastering display luminance : min: 0.0001 cd/m2, max: 1000 cd/m2
Maximum Content Light Level : 993 cd/m2
Maximum Frame-Average Light Level : 223 cd/m2

Audio
ID : 2
Format : E-AC-3
Format/Info : Enhanced AC-3
Commercial name : Dolby Digital Plus
Codec ID : A_EAC3
Duration : 1 h 51 min
Bit rate mode : Constant
Bit rate : 640 kb/s
Channel(s) : 6 channels
Channel layout : L R C LFE Ls Rs
Sampling rate : 48.0 kHz
Frame rate : 31.250 FPS (1536 SPF)
Compression mode : Lossy
Stream size : 510 MiB (4%)
Title : English
Language : English
Service kind : Complete Main
Default : No
Forced : No

Text #1
ID : 3
Format : UTF-8
Codec ID : S_TEXT/UTF8
Codec ID/Info : UTF-8 Plain Text
Duration : 1 h 39 min
Bit rate : 0 b/s
Count of elements : 30
Stream size : 490 Bytes (0%)
Title : English [Forced] Language : English
Default : No
Forced : Yes

Text #2
ID : 4
Format : UTF-8
Codec ID : S_TEXT/UTF8
Codec ID/Info : UTF-8 Plain Text
Duration : 1 h 43 min
Bit rate : 68 b/s
Count of elements : 1544
Stream size : 52.0 KiB (0%)
Title : English [SDH] Language : English
Default : No
Forced : No

Text #3
ID : 5
Format : UTF-8
Codec ID : S_TEXT/UTF8
Codec ID/Info : UTF-8 Plain Text
Duration : 1 h 43 min
Bit rate : 64 b/s
Count of elements : 1453
Stream size : 49.0 KiB (0%)
Title : English
Language : English
Default : No
Forced : No

Menu
00:00:00.000 : en:Amazon Studios
00:00:22.000 : en:Studio Logo
00:01:02.000 : en:Scene 3
00:03:52.000 : en:Scene 4
00:05:20.000 : en:Scene 5
00:05:46.000 : en:Scene 6
00:08:07.000 : en:Scene 7
00:08:38.000 : en:Scene 8
00:13:37.000 : en:Scene 9
00:15:52.000 : en:Scene 10
00:17:48.000 : en:Scene 11
00:19:26.000 : en:Scene 12
00:21:21.000 : en:Scene 13
00:22:17.000 : en:Scene 14
00:24:48.000 : en:Scene 15
00:28:29.000 : en:Scene 16
00:31:40.000 : en:Scene 17
00:34:50.000 : en:Scene 18
00:35:50.000 : en:Scene 19
00:37:41.000 : en:Scene 20
00:38:09.000 : en:Scene 21
00:43:06.000 : en:Scene 22
00:44:42.000 : en:Scene 23
00:46:20.000 : en:Scene 24
00:49:13.000 : en:Scene 25
00:50:35.000 : en:Scene 26
00:53:17.000 : en:Scene 27
01:01:25.000 : en:Scene 28
01:04:30.000 : en:Scene 29
01:08:04.000 : en:Scene 30
01:09:23.000 : en:Scene 31
01:11:50.000 : en:Scene 32
01:14:01.000 : en:Scene 33
01:14:46.000 : en:Scene 34
01:15:56.000 : en:Scene 35
01:19:28.000 : en:Scene 36
01:20:02.000 : en:Scene 37
01:24:02.000 : en:Scene 38
01:27:10.000 : en:Scene 39
01:29:49.000 : en:Scene 40
01:33:59.000 : en:Scene 41
01:40:57.000 : en:Scene 42
01:45:04.000 : en:End Credits

1080p.x265-BvS

General
Unique ID : 84838316861573700372713052945420696877 (0x3FD343F6FD5463CE9C1BC9D8DDA8BD2D)
Complete name : The.Electrical.Life.Of.Louis.Wain.2021.1080p.amzn.webrip.x265-BvS.mkv
Format : Matroska
Format version : Version 4
File size : 926 MiB
Duration : 1 h 51 min
Overall bit rate : 1 161 kb/s
Movie name : BvSRips
Encoded date : UTC 2021-11-06 15:56:09
Writing application : mkvmerge v51.0.0 (‘I Wish’) 64-bit
Writing library : libebml v1.4.0 + libmatroska v1.6.2

Video
ID : 1
Format : HEVC
Format/Info : High Efficiency Video Coding
Format profile : [email protected]@Main
Codec ID : V_MPEGH/ISO/HEVC
Duration : 1 h 51 min
Bit rate : 904 kb/s
Width : 1 920 pixels
Height : 1 080 pixels
Display aspect ratio : 16:9
Frame rate mode : Constant
Frame rate : 23.976 (24000/1001) FPS
Color space : YUV
Chroma subsampling : 4:2:0
Bit depth : 8 bits
Bits/(Pixel*Frame) : 0.018
Stream size : 721 MiB (78%)
Writing library : x265 3.2.1+1-b5c86a64bbbe:[Windows][GCC 9.2.0][64 bit] 8bit+10bit+12bit
Encoding settings : cpuid=1111039 / frame-threads=4 / numa-pools=16 / wpp / no-pmode / no-pme / psnr / no-ssim / log-level=2 / input-csp=1 / input-res=1920×1080 / interlace=0 / total-frames=0 / level-idc=0 / high-tier=1 / uhd-bd=0 / ref=2 / no-allow-non-conformance / no-repeat-headers / annexb / no-aud / no-hrd / info / hash=0 / no-temporal-layers / open-gop / min-keyint=24 / keyint=240 / gop-lookahead=0 / bframes=4 / b-adapt=0 / b-pyramid / bframe-bias=0 / rc-lookahead=15 / lookahead-slices=6 / scenecut=40 / radl=0 / no-splice / no-intra-refresh / ctu=64 / min-cu-size=8 / no-rect / no-amp / max-tu-size=32 / tu-inter-depth=1 / tu-intra-depth=1 / limit-tu=0 / rdoq-level=0 / dynamic-rd=0.00 / no-ssim-rd / signhide / no-tskip / nr-intra=0 / nr-inter=0 / no-constrained-intra / strong-intra-smoothing / max-merge=2 / limit-refs=3 / no-limit-modes / me=1 / subme=2 / merange=57 / temporal-mvp / no-hme / weightp / no-weightb / no-analyze-src-pics / deblock=0:0 / sao / no-sao-non-deblock / rd=2 / selective-sao=4 / early-skip / rskip / fast-intra / no-tskip-fast / no-cu-lossless / no-b-intra / no-splitrd-skip / rdpenalty=0 / psy-rd=0.00 / psy-rdoq=0.00 / no-rd-refine / no-lossless / cbqpoffs=0 / crqpoffs=0 / rc=crf / crf=22.0 / qcomp=0.60 / qpstep=4 / stats-write=0 / stats-read=0 / ipratio=1.40 / pbratio=1.30 / aq-mode=2 / aq-strength=0.00 / cutree / zone-count=0 / no-strict-cbr / qg-size=32 / no-rc-grain / qpmax=69 / qpmin=0 / no-const-vbv / sar=1 / overscan=0 / videoformat=5 / range=0 / colorprim=1 / transfer=1 / colormatrix=1 / chromaloc=0 / display-window=0 / cll=0,0 / min-luma=0 / max-luma=255 / log2-max-poc-lsb=8 / vui-timing-info / vui-hrd-info / slices=1 / no-opt-qp-pps / no-opt-ref-list-length-pps / no-multi-pass-opt-rps / scenecut-bias=0.05 / no-opt-cu-delta-qp / no-aq-motion / no-hdr / no-hdr-opt / no-dhdr10-opt / no-idr-recovery-sei / analysis-reuse-level=5 / scale-factor=0 / refine-intra=0 / refine-inter=0 / refine-mv=1 / refine-ctu-distortion=0 / no-limit-sao / ctu-info=0 / no-lowpass-dct / refine-analysis-type=0 / copy-pic=1 / max-ausize-factor=1.0 / no-dynamic-refine / no-single-sei / no-hevc-aq / no-svt / no-field / qp-adaptation-range=1.00
Default : Yes
Forced : No
Color range : Limited
Color primaries : BT.709
Transfer characteristics : BT.709
Matrix coefficients : BT.709

Audio
ID : 2
Format : AAC LC SBR
Format/Info : Advanced Audio Codec Low Complexity with Spectral Band Replication
Commercial name : HE-AAC
Format settings : NBC
Codec ID : A_AAC-5
Duration : 1 h 51 min
Bit rate : 256 kb/s
Channel(s) : 6 channels
Channel layout : C L R Ls Rs LFE
Sampling rate : 48.0 kHz
Frame rate : 23.438 FPS (2048 SPF)
Compression mode : Lossy
Delay relative to video : -105 ms
Stream size : 204 MiB (22%)
Language : English
Default : Yes
Forced : No

Text
ID : 3
Format : ASS
Codec ID : S_TEXT/ASS
Codec ID/Info : Advanced Sub Station Alpha
Duration : 4 s 500 ms
Bit rate : 149 b/s
Count of elements : 1
Compression mode : Lossless
Stream size : 84.0 Bytes (0%)
Default : Yes
Forced : No

Leave a Reply

Your email address will not be published. Required fields are marked *