Stealing Beauty (1996) | 720p & 1080p & 2160p BluRay x265-BvS

Stealing Beauty (1996)

Lucy Harmon, a nineteen-year-old American, is the daughter of well-known (now deceased) poet and model, Sara Harmon. The film opens as Lucy arrives for a vacation at the Tuscany villa of Sara’s old friends, Ian and Diana Grayson (played by Donal McCann and Cusack, respectively). Other guests include a prominent New York art gallery owner, an Italian advice columnist and an English writer, Alex Parrish (Irons), who is dying of an unspecified disease. Lucy goes for a swim, and finds that Diana’s daughter from a previous marriage, Miranda Fox (Weisz), is also there with her boyfriend, entertainment lawyer Richard Reed (D. W. Moffett). Miranda’s brother, Christopher (Fiennes), is supposed to be there, but he is off on a road trip with the Italian son of a neighboring villa, Niccoló Donati (Roberto Zibetti). Lucy was particularly hoping to see Niccoló, whom she had met on a previous visit to the villa, four years earlier, and who was the first boy she’d ever kissed. Lucy and Niccoló had briefly exchanged letters after this first visit. One letter in particular Lucy had admired so much she memorized it.

Links: iMDB | Trailer

Note: In English with English/German Selectable Subtitles

DOWNLOAD

VIP

This content is reserved for registered users. BUY A VIP MEMBERSHIP HERE and login to be able to see it.

FREE

NFO

Stealing Beauty (1996) (1080p BluRay x265 10bit Tigole)

General
Unique ID : 182552360497481680872058910560158175600 (0x89564E45A2EC0759966B2975125F5170)
Complete name : Stealing Beauty (1996) (1080p BluRay x265 10bit Tigole).mkv
Format : Matroska
Format version : Version 4
File size : 5.33 GiB
Duration : 1 h 58 min
Overall bit rate : 6 452 kb/s
Encoded date : UTC 2021-08-18 13:40:54
Writing application : mkvmerge v55.0.0 (‘Waiting For Space’) 64-bit
Writing library : libebml v1.4.2 + libmatroska v1.6.4

Video
ID : 1
Format : HEVC
Format/Info : High Efficiency Video Coding
Format profile : Main [email protected]@Main
Codec ID : V_MPEGH/ISO/HEVC
Duration : 1 h 58 min
Bit rate : 6 000 kb/s
Width : 1 920 pixels
Height : 816 pixels
Display aspect ratio : 2.35:1
Frame rate mode : Constant
Frame rate : 23.976 (24000/1001) FPS
Color space : YUV
Chroma subsampling : 4:2:0
Bit depth : 10 bits
Bits/(Pixel*Frame) : 0.160
Stream size : 4.95 GiB (93%)
Writing library : x265M – 3.4+35-772bb4c84:[Windows][GCC 10.2.0][64 bit] 10bit
Encoding settings : cpuid=1111039 / frame-threads=2 / numa-pools=4,0 / wpp / no-pmode / no-pme / no-psnr / no-ssim / log-level=2 / input-csp=1 / input-res=1920×816 / interlace=0 / total-frames=169992 / level-idc=0 / high-tier=1 / uhd-bd=0 / ref=4 / no-allow-non-conformance / no-repeat-headers / annexb / no-aud / no-hrd / info / hash=0 / no-temporal-layers / open-gop / min-keyint=23 / keyint=250 / gop-lookahead=0 / bframes=4 / b-adapt=2 / b-pyramid / bframe-bias=0 / rc-lookahead=25 / lookahead-slices=4 / scenecut=40 / hist-scenecut=0 / radl=0 / no-splice / no-intra-refresh / ctu=64 / min-cu-size=8 / rect / no-amp / max-tu-size=32 / tu-inter-depth=1 / tu-intra-depth=1 / limit-tu=0 / rdoq-level=2 / dynamic-rd=0.00 / no-ssim-rd / signhide / no-tskip / nr-intra=0 / nr-inter=0 / no-constrained-intra / strong-intra-smoothing / max-merge=3 / limit-refs=3 / limit-modes / me=3 / subme=3 / merange=57 / temporal-mvp / no-frame-dup / no-hme / weightp / no-weightb / no-analyze-src-pics / deblock=0:0 / no-sao / no-sao-non-deblock / rd=4 / selective-sao=0 / no-early-skip / rskip / no-fast-intra / no-tskip-fast / no-cu-lossless / no-b-intra / no-splitrd-skip / rdpenalty=0 / psy-rd=2.00 / psy-rdoq=1.00 / no-rd-refine / no-lossless / cbqpoffs=0 / crqpoffs=0 / rc=abr / bitrate=6000 / qcomp=0.60 / qpstep=4 / stats-write=0 / stats-read=2 / cplxblur=20.0 / qblur=0.5 / ipratio=1.40 / pbratio=1.30 / aq-mode=3 / aq-strength=1.00 / cutree / zone-count=0 / no-strict-cbr / qg-size=32 / no-rc-grain / qpmax=69 / qpmin=0 / no-const-vbv / sar=0 / overscan=0 / videoformat=5 / range=0 / colorprim=2 / transfer=2 / colormatrix=2 / chromaloc=0 / display-window=0 / cll=0,0 / min-luma=0 / max-luma=1023 / log2-max-poc-lsb=8 / vui-timing-info / vui-hrd-info / slices=1 / no-opt-qp-pps / no-opt-ref-list-length-pps / multi-pass-opt-rps / scenecut-bias=0.05 / hist-threshold=0.03 / no-opt-cu-delta-qp / aq-motion / no-hdr10 / no-hdr10-opt / no-dhdr10-opt / no-idr-recovery-sei / analysis-reuse-level=0 / analysis-save-reuse-level=0 / analysis-load-reuse-level=0 / scale-factor=0 / refine-intra=0 / refine-inter=0 / refine-mv=1 / refine-ctu-distortion=0 / no-limit-sao / ctu-info=0 / no-lowpass-dct / refine-analysis-type=0 / copy-pic=1 / max-ausize-factor=1.0 / no-dynamic-refine / no-single-sei / no-hevc-aq / no-svt / no-field / qp-adaptation-range=1.00 / scenecut-aware-qp=0conformance-window-offsets / right=0 / bottom=0 / decoder-max-rate=0 / no-vbv-live-multi-pass
Default : Yes
Forced : No

Audio
ID : 2
Format : AAC LC
Format/Info : Advanced Audio Codec Low Complexity
Codec ID : A_AAC-2
Duration : 1 h 58 min
Bit rate : 446 kb/s
Channel(s) : 6 channels
Channel layout : C L R Ls Rs LFE
Sampling rate : 48.0 kHz
Frame rate : 46.875 FPS (1024 SPF)
Compression mode : Lossy
Delay relative to video : 20 ms
Stream size : 377 MiB (7%)
Language : English
Default : Yes
Forced : No

Text #1
ID : 3
Format : UTF-8
Codec ID : S_TEXT/UTF8
Codec ID/Info : UTF-8 Plain Text
Duration : 1 h 56 min
Bit rate : 42 b/s
Count of elements : 1595
Stream size : 36.2 KiB (0%)
Language : English
Default : No
Forced : No

Text #2
ID : 4
Format : VobSub
Muxing mode : zlib
Codec ID : S_VOBSUB
Codec ID/Info : Picture based subtitle format used on DVDs
Duration : 1 h 19 min
Bit rate : 833 b/s
Count of elements : 106
Stream size : 485 KiB (0%)
Title : Forced
Language : English
Default : No
Forced : Yes

Text #3
ID : 5
Format : VobSub
Muxing mode : zlib
Codec ID : S_VOBSUB
Codec ID/Info : Picture based subtitle format used on DVDs
Duration : 1 h 50 min
Bit rate : 5 046 b/s
Count of elements : 886
Stream size : 4.00 MiB (0%)
Language : German
Default : No
Forced : No

Text #4
ID : 6
Format : VobSub
Muxing mode : zlib
Codec ID : S_VOBSUB
Codec ID/Info : Picture based subtitle format used on DVDs
Duration : 1 h 19 min
Bit rate : 833 b/s
Count of elements : 102
Stream size : 485 KiB (0%)
Title : Forced
Language : German
Default : No
Forced : No

Menu
00:00:00.000 : en:Chapter 01
00:03:04.142 : en:Chapter 02
00:11:04.330 : en:Chapter 03
00:19:33.839 : en:Chapter 04
00:31:05.196 : en:Chapter 05
00:34:56.302 : en:Chapter 06
00:40:06.153 : en:Chapter 07
00:48:54.181 : en:Chapter 08
00:56:34.808 : en:Chapter 09
01:01:13.252 : en:Chapter 10
01:09:48.642 : en:Chapter 11
01:20:40.794 : en:Chapter 12
01:28:40.106 : en:Chapter 13
01:33:11.961 : en:Chapter 14
01:41:28.415 : en:Chapter 15
01:48:01.391 : en:Chapter 16
01:53:18.708 : en:Chapter 17

Leave a Reply

Your email address will not be published. Required fields are marked *