Star Trek The Motion Picture (1979) | 720p & 1080p & 2160p BluRay x265-BvS

When an alien spacecraft of enormous power is spotted approaching Earth, Admiral James T. Kirk resumes command of the overhauled USS Enterprise in order to intercept it.

Links: iMDB | Trailer

Note: In English with English Selectable Subtitles

DOWNLOAD

VIP

This content is reserved for registered users. BUY A VIP MEMBERSHIP HERE and login to be able to see it.

FREE

  • Star.Trek.The.Motion.Picture.1979.2160p.UHD.BluRay.Remux.HDR.DV.HEVC.TrueHD.7.1-TeMPo – 51.60GB (ONLY VIP)

NFO

Star.Trek.The.Motion.Picture.1979.2160p.UHD.BluRay.Remux.HDR.DV.HEVC.TrueHD.7.1-TeMPo

General
Unique ID : 230982486881050120622521265529358680053 (0xADC59BDB0F18B7B6EE4E68F3210C7FF5)
Complete name : D:\HDNLEN1102\Star.Trek.The.Motion.Picture.1979.2160p.UHD.BluRay.Remux.HDR.DV.HEVC.TrueHD.7.1-TeMPo\Star.Trek.The.Motion.Picture.1979.2160p.UHD.BluRay.Remux.HDR.DV.HEVC.TrueHD.7.1-TeMPo.mkv
Format : Matroska
Format version : Version 4
File size : 51.7 GiB
Duration : 2 h 12 min
Overall bit rate mode : Variable
Overall bit rate : 56.1 Mb/s
Movie name : Star Trek: The Motion Picture (1979)
Encoded date : UTC 2021-09-04 09:09:18
Writing application : mkvmerge v61.0.0 (‘So’) 64-bit
Writing library : libebml v1.4.2 + libmatroska v1.6.4
IMDB : tt0079945
TMDB : movie/152

Video
ID : 1
ID in the original source medium : 4113 (0x1011)
Format : HEVC
Format/Info : High Efficiency Video Coding
Format profile : Main [email protected]@High
HDR format : SMPTE ST 2086, HDR10 compatible
Codec ID : V_MPEGH/ISO/HEVC
Duration : 2 h 12 min
Bit rate : 48.4 Mb/s
Width : 3 840 pixels
Height : 2 160 pixels
Display aspect ratio : 16:9
Frame rate mode : Constant
Frame rate : 23.976 (24000/1001) FPS
Color space : YUV
Chroma subsampling : 4:2:0 (Type 2)
Bit depth : 10 bits
Bits/(Pixel*Frame) : 0.244
Stream size : 44.7 GiB (86%)
Title : MPEG-H HEVC Video / 43521 kbps / 2160p / 23.976 fps / 16:9 / Main 10 @ Level 5.1 @ High / 4:2:0 / 10 bits / 1000nits / HDR10 / BT.2020 / Dolby Vision FEL @ 4928 kbps
Language : English
Default : No
Forced : No
Color range : Limited
Color primaries : BT.2020
Transfer characteristics : PQ
Matrix coefficients : BT.2020 non-constant
Mastering display color primaries : Display P3
Mastering display luminance : min: 0.0001 cd/m2, max: 1000 cd/m2
Original source medium : Blu-ray

Audio #1
ID : 2
Format : MLP FBA
Format/Info : Meridian Lossless Packing FBA
Commercial name : Dolby TrueHD
Codec ID : A_TRUEHD
Duration : 2 h 11 min
Bit rate mode : Variable
Bit rate : 5 633 kb/s
Maximum bit rate : 8 199 kb/s
Channel(s) : 8 channels
Channel layout : L R C LFE Ls Rs Lb Rb
Sampling rate : 48.0 kHz
Frame rate : 1 200.000 FPS (40 SPF)
Compression mode : Lossless
Stream size : 5.19 GiB (10%)
Title : Dolby TrueHD Audio / 7.1 / 48 kHz / 5633 kbps / 24-bit
Language : English
Default : Yes
Forced : No

Audio #2
ID : 3
Format : AC-3
Format/Info : Audio Coding 3
Commercial name : Dolby Digital
Codec ID : A_AC3
Duration : 2 h 11 min
Bit rate mode : Constant
Bit rate : 640 kb/s
Channel(s) : 6 channels
Channel layout : L R C LFE Ls Rs
Sampling rate : 48.0 kHz
Frame rate : 31.250 FPS (1536 SPF)
Compression mode : Lossy
Stream size : 604 MiB (1%)
Title : Compatibility Track / Dolby Digital Audio / 5.1-EX / 48 kHz / 640 kbps
Language : English
Service kind : Complete Main
Default : No
Forced : No

Audio #3
ID : 4
Format : AC-3
Format/Info : Audio Coding 3
Commercial name : Dolby Digital
Codec ID : A_AC3
Duration : 2 h 12 min
Bit rate mode : Constant
Bit rate : 224 kb/s
Channel(s) : 2 channels
Channel layout : L R
Sampling rate : 48.0 kHz
Frame rate : 31.250 FPS (1536 SPF)
Compression mode : Lossy
Stream size : 211 MiB (0%)
Title : Commentary by Michael & Denise Okuda, Judith & Garfield Reeves-Stevens and Daren Dochterman
Language : English
Service kind : Complete Main
Default : No
Forced : No

Audio #4
ID : 5
Format : AC-3
Format/Info : Audio Coding 3
Commercial name : Dolby Digital
Codec ID : A_AC3
Duration : 2 h 12 min
Bit rate mode : Constant
Bit rate : 224 kb/s
Channel(s) : 2 channels
Channel layout : L R
Sampling rate : 48.0 kHz
Frame rate : 31.250 FPS (1536 SPF)
Compression mode : Lossy
Stream size : 211 MiB (0%)
Title : Isolated Score / Dolby Digital Audio / 2.0 / 48 kHz / 224 kbps
Language : zxx
Service kind : Complete Main
Default : No
Forced : No

Text #1
ID : 6
Format : PGS
Codec ID : S_HDMV/PGS
Codec ID/Info : Picture based subtitle format used on BDs/HD-DVDs
Duration : 6 min 52 s
Bit rate : 7 418 b/s
Count of elements : 40
Stream size : 374 KiB (0%)
Title : Forced for non-English dialogue
Language : English
Default : Yes
Forced : Yes

Text #2
ID : 7
Format : PGS
Codec ID : S_HDMV/PGS
Codec ID/Info : Picture based subtitle format used on BDs/HD-DVDs
Duration : 2 h 2 min
Bit rate : 27.6 kb/s
Count of elements : 2142
Stream size : 24.2 MiB (0%)
Language : English
Default : No
Forced : No

Text #3
ID : 8
Format : PGS
Codec ID : S_HDMV/PGS
Codec ID/Info : Picture based subtitle format used on BDs/HD-DVDs
Duration : 2 h 2 min
Bit rate : 29.6 kb/s
Count of elements : 2296
Stream size : 26.0 MiB (0%)
Title : SDH
Language : English
Default : No
Forced : No

Text #4
ID : 9
Format : PGS
Codec ID : S_HDMV/PGS
Codec ID/Info : Picture based subtitle format used on BDs/HD-DVDs
Duration : 2 h 7 min
Bit rate : 14.9 kb/s
Count of elements : 2140
Stream size : 13.5 MiB (0%)
Language : Arabic
Default : No
Forced : No

Text #5
ID : 10
Format : PGS
Codec ID : S_HDMV/PGS
Codec ID/Info : Picture based subtitle format used on BDs/HD-DVDs
Duration : 2 h 7 min
Bit rate : 18.7 kb/s
Count of elements : 2140
Stream size : 17.0 MiB (0%)
Title : Traditional (Hong Kong)
Language : Chinese
Default : No
Forced : No

Text #6
ID : 11
Format : PGS
Codec ID : S_HDMV/PGS
Codec ID/Info : Picture based subtitle format used on BDs/HD-DVDs
Duration : 2 h 7 min
Bit rate : 19.2 kb/s
Count of elements : 2140
Stream size : 17.5 MiB (0%)
Title : Traditional (Taiwan)
Language : Chinese
Default : No
Forced : No

Text #7
ID : 12
Format : PGS
Codec ID : S_HDMV/PGS
Codec ID/Info : Picture based subtitle format used on BDs/HD-DVDs
Duration : 2 h 7 min
Bit rate : 25.4 kb/s
Count of elements : 2140
Stream size : 23.1 MiB (0%)
Language : Croatian
Default : No
Forced : No

Text #8
ID : 13
Format : PGS
Codec ID : S_HDMV/PGS
Codec ID/Info : Picture based subtitle format used on BDs/HD-DVDs
Duration : 2 h 7 min
Bit rate : 26.6 kb/s
Count of elements : 2148
Stream size : 24.3 MiB (0%)
Language : Danish
Default : No
Forced : No

Text #9
ID : 14
Format : PGS
Codec ID : S_HDMV/PGS
Codec ID/Info : Picture based subtitle format used on BDs/HD-DVDs
Duration : 2 h 7 min
Bit rate : 26.0 kb/s
Count of elements : 2148
Stream size : 23.7 MiB (0%)
Language : Dutch
Default : No
Forced : No

Text #10
ID : 15
Format : PGS
Codec ID : S_HDMV/PGS
Codec ID/Info : Picture based subtitle format used on BDs/HD-DVDs
Duration : 2 h 7 min
Bit rate : 23.3 kb/s
Count of elements : 2148
Stream size : 21.2 MiB (0%)
Language : Finnish
Default : No
Forced : No

Text #11
ID : 16
Format : PGS
Codec ID : S_HDMV/PGS
Codec ID/Info : Picture based subtitle format used on BDs/HD-DVDs
Duration : 2 h 9 min
Bit rate : 25.3 kb/s
Count of elements : 2150
Stream size : 23.5 MiB (0%)
Title : Parisian
Language : French
Default : No
Forced : No

Text #12
ID : 17
Format : PGS
Codec ID : S_HDMV/PGS
Codec ID/Info : Picture based subtitle format used on BDs/HD-DVDs
Duration : 2 h 9 min
Bit rate : 29.3 kb/s
Count of elements : 2150
Stream size : 27.2 MiB (0%)
Language : German
Default : No
Forced : No

Text #13
ID : 18
Format : PGS
Codec ID : S_HDMV/PGS
Codec ID/Info : Picture based subtitle format used on BDs/HD-DVDs
Duration : 2 h 7 min
Bit rate : 19.0 kb/s
Count of elements : 2140
Stream size : 17.3 MiB (0%)
Language : Hindi
Default : No
Forced : No

Text #14
ID : 19
Format : PGS
Codec ID : S_HDMV/PGS
Codec ID/Info : Picture based subtitle format used on BDs/HD-DVDs
Duration : 2 h 7 min
Bit rate : 27.8 kb/s
Count of elements : 2140
Stream size : 25.3 MiB (0%)
Language : Indonesian
Default : No
Forced : No

Text #15
ID : 20
Format : PGS
Codec ID : S_HDMV/PGS
Codec ID/Info : Picture based subtitle format used on BDs/HD-DVDs
Duration : 2 h 7 min
Bit rate : 25.5 kb/s
Count of elements : 2140
Stream size : 23.2 MiB (0%)
Language : Italian
Default : No
Forced : No

Text #16
ID : 21
Format : PGS
Codec ID : S_HDMV/PGS
Codec ID/Info : Picture based subtitle format used on BDs/HD-DVDs
Duration : 2 h 3 min
Bit rate : 16.4 kb/s
Count of elements : 1888
Stream size : 14.5 MiB (0%)
Language : Japanese
Default : No
Forced : No

Text #17
ID : 22
Format : PGS
Codec ID : S_HDMV/PGS
Codec ID/Info : Picture based subtitle format used on BDs/HD-DVDs
Duration : 2 h 9 min
Bit rate : 16.5 kb/s
Count of elements : 2142
Stream size : 15.4 MiB (0%)
Language : Korean
Default : No
Forced : No

Text #18
ID : 23
Format : PGS
Codec ID : S_HDMV/PGS
Codec ID/Info : Picture based subtitle format used on BDs/HD-DVDs
Duration : 2 h 7 min
Bit rate : 24.6 kb/s
Count of elements : 2148
Stream size : 22.4 MiB (0%)
Language : Norwegian
Default : No
Forced : No

Text #19
ID : 24
Format : PGS
Codec ID : S_HDMV/PGS
Codec ID/Info : Picture based subtitle format used on BDs/HD-DVDs
Duration : 2 h 9 min
Bit rate : 26.6 kb/s
Count of elements : 2142
Stream size : 24.7 MiB (0%)
Title : Iberian
Language : Portuguese
Default : No
Forced : No

Text #20
ID : 25
Format : PGS
Codec ID : S_HDMV/PGS
Codec ID/Info : Picture based subtitle format used on BDs/HD-DVDs
Duration : 2 h 9 min
Bit rate : 26.3 kb/s
Count of elements : 2150
Stream size : 24.4 MiB (0%)
Title : Castilian
Language : Spanish
Default : No
Forced : No

Text #21
ID : 26
Format : PGS
Codec ID : S_HDMV/PGS
Codec ID/Info : Picture based subtitle format used on BDs/HD-DVDs
Duration : 2 h 7 min
Bit rate : 27.2 kb/s
Count of elements : 2148
Stream size : 24.7 MiB (0%)
Language : Swedish
Default : No
Forced : No

Text #22
ID : 27
Format : PGS
Codec ID : S_HDMV/PGS
Codec ID/Info : Picture based subtitle format used on BDs/HD-DVDs
Duration : 2 h 7 min
Bit rate : 21.0 kb/s
Count of elements : 2140
Stream size : 19.1 MiB (0%)
Language : Thai
Default : No
Forced : No

Text #23
ID : 28
Format : PGS
Codec ID : S_HDMV/PGS
Codec ID/Info : Picture based subtitle format used on BDs/HD-DVDs
Duration : 2 h 11 min
Bit rate : 55.1 kb/s
Count of elements : 3826
Stream size : 51.7 MiB (0%)
Title : Commentary
Language : English
Default : No
Forced : No

Text #24
ID : 29
Format : PGS
Codec ID : S_HDMV/PGS
Codec ID/Info : Picture based subtitle format used on BDs/HD-DVDs
Duration : 2 h 11 min
Bit rate : 52.1 kb/s
Count of elements : 3828
Stream size : 49.1 MiB (0%)
Title : Commentary
Language : French
Default : No
Forced : No

Text #25
ID : 30
Format : PGS
Codec ID : S_HDMV/PGS
Codec ID/Info : Picture based subtitle format used on BDs/HD-DVDs
Duration : 2 h 11 min
Bit rate : 56.2 kb/s
Count of elements : 3828
Stream size : 53.0 MiB (0%)
Title : Commentary
Language : German
Default : No
Forced : No

Text #26
ID : 31
Format : PGS
Codec ID : S_HDMV/PGS
Codec ID/Info : Picture based subtitle format used on BDs/HD-DVDs
Duration : 2 h 11 min
Bit rate : 49.9 kb/s
Count of elements : 3828
Stream size : 47.0 MiB (0%)
Title : Commentary
Language : Italian
Default : No
Forced : No

Text #27
ID : 32
Format : PGS
Codec ID : S_HDMV/PGS
Codec ID/Info : Picture based subtitle format used on BDs/HD-DVDs
Duration : 2 h 11 min
Bit rate : 37.8 kb/s
Count of elements : 3128
Stream size : 35.4 MiB (0%)
Title : Commentary
Language : Japanese
Default : No
Forced : No

Text #28
ID : 33
Format : PGS
Codec ID : S_HDMV/PGS
Codec ID/Info : Picture based subtitle format used on BDs/HD-DVDs
Duration : 2 h 11 min
Bit rate : 32.0 kb/s
Count of elements : 3828
Stream size : 30.1 MiB (0%)
Title : Commentary
Language : Korean
Default : No
Forced : No

Text #29
ID : 34
Format : PGS
Codec ID : S_HDMV/PGS
Codec ID/Info : Picture based subtitle format used on BDs/HD-DVDs
Duration : 2 h 11 min
Bit rate : 51.6 kb/s
Count of elements : 3828
Stream size : 48.6 MiB (0%)
Title : Commentary
Language : Spanish
Default : No
Forced : No

Menu
00:00:00.000 : Main Titles
00:01:41.518 : Klingon Battle
00:08:50.905 : Vulcan
00:11:49.291 : Starfleet Headquarters
00:20:46.203 : Welcome Aboard
00:25:12.969 : Transporter Malfunction
00:28:01.179 : Mission Malfunction
00:31:31.222 : The Navigator Ilia
00:38:02.822 : The Wormhole
00:44:36.382 : Decker Speaks Freely
00:48:07.759 : Spock’s Arrival
00:55:28.283 : Red Alert
01:01:15.380 : Entering the Cloud
01:12:20.627 : The Probe
01:17:28.852 : Into the Maw
01:21:55.201 : Memory Patterns
01:27:21.319 : Spock’s Journey
01:38:14.221 : Simple Feeling
01:46:18.205 : The Orifice Opens
01:51:56.918 : V’ger Revealed
02:08:36.250 : Credits

 

Leave a Reply

Your email address will not be published. Required fields are marked *