Star Trek IV: The Voyage Home (1986) | 720p & 1080p & 2160p BluRay x265-BvS

In 2286, an enormous cylindrical probe moves through space, sending out an indecipherable signal and disabling the power of every ship it passes. As it takes up orbit around Earth, its signal disables the global power grid and generates planetary storms, creating catastrophic, sun-blocking cloud cover. Starfleet Command sends out a planetary distress call and warns all space-faring vessels not to approach Earth.

Links: IMDB Trailer

Note: In English with English Selectable Subtitles

DOWNLOAD

VIP

This content is reserved for registered users. BUY A VIP MEMBERSHIP HERE and login to be able to see it.

FREE

  • Star.Trek.IV.The.Voyage.Home.1986.2160p.UHD.BluRay.Remux.HDR.DV.HEVC.TrueHD.7.1-TeMPo – 51.90GB (ONLY VIP)

NFO

1080p.x265-BvS

General
Unique ID : 312755487068716588455400302219798794301 (0xEB4A840A4515837563CF2FF30424503D)
Complete name : D:\HDNLEN1102\Star.Trek.IV.The.Voyage.Home.1986.2160p.UHD.BluRay.Remux.HDR.DV.HEVC.TrueHD.7.1-TeMPo\Star.Trek.IV.The.Voyage.Home.1986.2160p.UHD.BluRay.Remux.HDR.DV.HEVC.TrueHD.7.1-TeMPo.mkv
Format : Matroska
Format version : Version 4
File size : 51.9 GiB
Duration : 1 h 58 min
Overall bit rate mode : Variable
Overall bit rate : 62.5 Mb/s
Movie name : Star Trek IV: The Voyage Home (1986)
Encoded date : UTC 2021-09-07 02:46:18
Writing application : mkvmerge v61.0.0 (‘So’) 64-bit
Writing library : libebml v1.4.2 + libmatroska v1.6.4
IMDB : tt0092007
TMDB : movie/168

Video
ID : 1
ID in the original source medium : 4113 (0x1011)
Format : HEVC
Format/Info : High Efficiency Video Coding
Format profile : Main [email protected]@High
HDR format : SMPTE ST 2086, HDR10 compatible
Codec ID : V_MPEGH/ISO/HEVC
Duration : 1 h 58 min
Bit rate : 54.7 Mb/s
Width : 3 840 pixels
Height : 2 160 pixels
Display aspect ratio : 16:9
Frame rate mode : Constant
Frame rate : 23.976 (24000/1001) FPS
Color space : YUV
Chroma subsampling : 4:2:0 (Type 2)
Bit depth : 10 bits
Bits/(Pixel*Frame) : 0.275
Stream size : 45.4 GiB (88%)
Title : MPEG-H HEVC Video / 49201 kbps / 2160p / 23.976 fps / 16:9 / Main 10 @ Level 5.1 @ High / 4:2:0 / 10 bits / 1000nits / HDR10 / BT.2020 / Dolby Vision FEL @ 5533 kbps
Language : English
Default : No
Forced : No
Color range : Limited
Color primaries : BT.2020
Transfer characteristics : PQ
Matrix coefficients : BT.2020 non-constant
Mastering display color primaries : Display P3
Mastering display luminance : min: 0.0001 cd/m2, max: 1000 cd/m2
Original source medium : Blu-ray

Audio #1
ID : 2
Format : MLP FBA
Format/Info : Meridian Lossless Packing FBA
Commercial name : Dolby TrueHD
Codec ID : A_TRUEHD
Duration : 1 h 58 min
Bit rate mode : Variable
Bit rate : 5 512 kb/s
Maximum bit rate : 8 076 kb/s
Channel(s) : 8 channels
Channel layout : L R C LFE Ls Rs Lb Rb
Sampling rate : 48.0 kHz
Frame rate : 1 200.000 FPS (40 SPF)
Compression mode : Lossless
Stream size : 4.58 GiB (9%)
Title : Dolby TrueHD Audio / 7.1 / 48 kHz / 5512 kbps / 24-bit
Language : English
Default : Yes
Forced : No

Audio #2
ID : 3
Format : AC-3
Format/Info : Audio Coding 3
Commercial name : Dolby Digital
Codec ID : A_AC3
Duration : 1 h 58 min
Bit rate mode : Constant
Bit rate : 640 kb/s
Channel(s) : 6 channels
Channel layout : L R C LFE Ls Rs
Sampling rate : 48.0 kHz
Frame rate : 31.250 FPS (1536 SPF)
Compression mode : Lossy
Stream size : 544 MiB (1%)
Title : Compatibility Track / Dolby Digital Audio / 5.1-EX / 48 kHz / 640 kbps
Language : English
Service kind : Complete Main
Default : No
Forced : No

Audio #3
ID : 4
Format : AC-3
Format/Info : Audio Coding 3
Commercial name : Dolby Digital
Codec ID : A_AC3
Duration : 1 h 58 min
Bit rate mode : Constant
Bit rate : 224 kb/s
Channel(s) : 2 channels
Channel layout : L R
Sampling rate : 48.0 kHz
Frame rate : 31.250 FPS (1536 SPF)
Compression mode : Lossy
Stream size : 190 MiB (0%)
Title : Commentary by actor William Shatner and writer/director/actor Leonard Nimoy
Language : English
Service kind : Complete Main
Default : No
Forced : No

Audio #4
ID : 5
Format : AC-3
Format/Info : Audio Coding 3
Commercial name : Dolby Digital
Codec ID : A_AC3
Duration : 1 h 58 min
Bit rate mode : Constant
Bit rate : 224 kb/s
Channel(s) : 2 channels
Channel layout : L R
Sampling rate : 48.0 kHz
Frame rate : 31.250 FPS (1536 SPF)
Compression mode : Lossy
Stream size : 190 MiB (0%)
Title : Commentary by Star Trek movie fans Roberto Orci and Alex Kurtzman
Language : English
Service kind : Complete Main
Default : No
Forced : No

Text #1
ID : 6
Format : PGS
Codec ID : S_HDMV/PGS
Codec ID/Info : Picture based subtitle format used on BDs/HD-DVDs
Duration : 1 h 51 min
Bit rate : 40.0 kb/s
Count of elements : 2674
Stream size : 31.9 MiB (0%)
Language : English
Default : No
Forced : No

Text #2
ID : 7
Format : PGS
Codec ID : S_HDMV/PGS
Codec ID/Info : Picture based subtitle format used on BDs/HD-DVDs
Duration : 1 h 51 min
Bit rate : 41.6 kb/s
Count of elements : 2800
Stream size : 33.2 MiB (0%)
Title : SDH
Language : English
Default : No
Forced : No

Text #3
ID : 8
Format : PGS
Codec ID : S_HDMV/PGS
Codec ID/Info : Picture based subtitle format used on BDs/HD-DVDs
Duration : 1 h 54 min
Bit rate : 16.3 kb/s
Count of elements : 1834
Stream size : 13.4 MiB (0%)
Language : Arabic
Default : No
Forced : No

Text #4
ID : 9
Format : PGS
Codec ID : S_HDMV/PGS
Codec ID/Info : Picture based subtitle format used on BDs/HD-DVDs
Duration : 1 h 54 min
Bit rate : 24.8 kb/s
Count of elements : 3050
Stream size : 20.3 MiB (0%)
Title : Traditional (Hong Kong)
Language : Chinese
Default : No
Forced : No

Text #5
ID : 10
Format : PGS
Codec ID : S_HDMV/PGS
Codec ID/Info : Picture based subtitle format used on BDs/HD-DVDs
Duration : 1 h 54 min
Bit rate : 21.0 kb/s
Count of elements : 1818
Stream size : 17.2 MiB (0%)
Title : Traditional (Taiwan)
Language : Chinese
Default : No
Forced : No

Text #6
ID : 11
Format : PGS
Codec ID : S_HDMV/PGS
Codec ID/Info : Picture based subtitle format used on BDs/HD-DVDs
Duration : 1 h 54 min
Bit rate : 28.3 kb/s
Count of elements : 1828
Stream size : 23.2 MiB (0%)
Language : Croatian
Default : No
Forced : No

Text #7
ID : 12
Format : PGS
Codec ID : S_HDMV/PGS
Codec ID/Info : Picture based subtitle format used on BDs/HD-DVDs
Duration : 1 h 58 min
Bit rate : 28.7 kb/s
Count of elements : 1986
Stream size : 24.4 MiB (0%)
Language : Danish
Default : No
Forced : No

Text #8
ID : 13
Format : PGS
Codec ID : S_HDMV/PGS
Codec ID/Info : Picture based subtitle format used on BDs/HD-DVDs
Duration : 1 h 58 min
Bit rate : 30.1 kb/s
Count of elements : 1844
Stream size : 25.5 MiB (0%)
Language : Dutch
Default : No
Forced : No

Text #9
ID : 14
Format : PGS
Codec ID : S_HDMV/PGS
Codec ID/Info : Picture based subtitle format used on BDs/HD-DVDs
Duration : 1 h 58 min
Bit rate : 27.6 kb/s
Count of elements : 1838
Stream size : 23.4 MiB (0%)
Language : Finnish
Default : No
Forced : No

Text #10
ID : 15
Format : PGS
Codec ID : S_HDMV/PGS
Codec ID/Info : Picture based subtitle format used on BDs/HD-DVDs
Duration : 1 h 58 min
Bit rate : 28.6 kb/s
Count of elements : 2146
Stream size : 24.3 MiB (0%)
Language : French
Default : No
Forced : No

Text #11
ID : 16
Format : PGS
Codec ID : S_HDMV/PGS
Codec ID/Info : Picture based subtitle format used on BDs/HD-DVDs
Duration : 1 h 58 min
Bit rate : 28.3 kb/s
Count of elements : 1870
Stream size : 24.0 MiB (0%)
Language : German
Default : No
Forced : No

Text #12
ID : 17
Format : PGS
Codec ID : S_HDMV/PGS
Codec ID/Info : Picture based subtitle format used on BDs/HD-DVDs
Duration : 1 h 54 min
Bit rate : 27.3 kb/s
Count of elements : 2684
Stream size : 22.4 MiB (0%)
Language : Hindi
Default : No
Forced : No

Text #13
ID : 18
Format : PGS
Codec ID : S_HDMV/PGS
Codec ID/Info : Picture based subtitle format used on BDs/HD-DVDs
Duration : 1 h 54 min
Bit rate : 38.6 kb/s
Count of elements : 2680
Stream size : 31.7 MiB (0%)
Language : Indonesian
Default : No
Forced : No

Text #14
ID : 19
Format : PGS
Codec ID : S_HDMV/PGS
Codec ID/Info : Picture based subtitle format used on BDs/HD-DVDs
Duration : 1 h 54 min
Bit rate : 29.5 kb/s
Count of elements : 1948
Stream size : 24.2 MiB (0%)
Language : Italian
Default : No
Forced : No

Text #15
ID : 20
Format : PGS
Codec ID : S_HDMV/PGS
Codec ID/Info : Picture based subtitle format used on BDs/HD-DVDs
Duration : 1 h 54 min
Bit rate : 23.4 kb/s
Count of elements : 2472
Stream size : 19.2 MiB (0%)
Language : Japanese
Default : No
Forced : No

Text #16
ID : 21
Format : PGS
Codec ID : S_HDMV/PGS
Codec ID/Info : Picture based subtitle format used on BDs/HD-DVDs
Duration : 1 h 54 min
Bit rate : 18.7 kb/s
Count of elements : 1940
Stream size : 15.4 MiB (0%)
Language : Korean
Default : No
Forced : No

Text #17
ID : 22
Format : PGS
Codec ID : S_HDMV/PGS
Codec ID/Info : Picture based subtitle format used on BDs/HD-DVDs
Duration : 1 h 58 min
Bit rate : 29.2 kb/s
Count of elements : 1824
Stream size : 24.7 MiB (0%)
Language : Norwegian
Default : No
Forced : No

Text #18
ID : 23
Format : PGS
Codec ID : S_HDMV/PGS
Codec ID/Info : Picture based subtitle format used on BDs/HD-DVDs
Duration : 1 h 54 min
Bit rate : 29.1 kb/s
Count of elements : 1954
Stream size : 23.9 MiB (0%)
Title : Brazilian
Language : Portuguese
Default : No
Forced : No

Text #19
ID : 24
Format : PGS
Codec ID : S_HDMV/PGS
Codec ID/Info : Picture based subtitle format used on BDs/HD-DVDs
Duration : 1 h 54 min
Bit rate : 31.3 kb/s
Count of elements : 2298
Stream size : 25.7 MiB (0%)
Title : Iberian
Language : Portuguese
Default : No
Forced : No

Text #20
ID : 25
Format : PGS
Codec ID : S_HDMV/PGS
Codec ID/Info : Picture based subtitle format used on BDs/HD-DVDs
Duration : 1 h 58 min
Bit rate : 30.1 kb/s
Count of elements : 1848
Stream size : 25.5 MiB (0%)
Title : Castilian
Language : Spanish
Default : No
Forced : No

Text #21
ID : 26
Format : PGS
Codec ID : S_HDMV/PGS
Codec ID/Info : Picture based subtitle format used on BDs/HD-DVDs
Duration : 1 h 54 min
Bit rate : 26.3 kb/s
Count of elements : 1842
Stream size : 21.6 MiB (0%)
Title : Latin American
Language : Spanish
Default : No
Forced : No

Text #22
ID : 27
Format : PGS
Codec ID : S_HDMV/PGS
Codec ID/Info : Picture based subtitle format used on BDs/HD-DVDs
Duration : 1 h 58 min
Bit rate : 26.4 kb/s
Count of elements : 1818
Stream size : 22.4 MiB (0%)
Language : Swedish
Default : No
Forced : No

Text #23
ID : 28
Format : PGS
Codec ID : S_HDMV/PGS
Codec ID/Info : Picture based subtitle format used on BDs/HD-DVDs
Duration : 1 h 54 min
Bit rate : 22.4 kb/s
Count of elements : 1856
Stream size : 18.4 MiB (0%)
Language : Thai
Default : No
Forced : No

Text #24
ID : 29
Format : PGS
Codec ID : S_HDMV/PGS
Codec ID/Info : Picture based subtitle format used on BDs/HD-DVDs
Duration : 1 h 54 min
Bit rate : 46.1 kb/s
Count of elements : 2626
Stream size : 37.7 MiB (0%)
Title : Commentary #1
Language : English
Default : No
Forced : No

Text #25
ID : 30
Format : PGS
Codec ID : S_HDMV/PGS
Codec ID/Info : Picture based subtitle format used on BDs/HD-DVDs
Duration : 1 h 58 min
Bit rate : 37.2 kb/s
Count of elements : 2628
Stream size : 31.5 MiB (0%)
Title : Commentary #1
Language : French
Default : No
Forced : No

Text #26
ID : 31
Format : PGS
Codec ID : S_HDMV/PGS
Codec ID/Info : Picture based subtitle format used on BDs/HD-DVDs
Duration : 1 h 58 min
Bit rate : 43.9 kb/s
Count of elements : 2628
Stream size : 37.2 MiB (0%)
Title : Commentary #1
Language : German
Default : No
Forced : No

Text #27
ID : 32
Format : PGS
Codec ID : S_HDMV/PGS
Codec ID/Info : Picture based subtitle format used on BDs/HD-DVDs
Duration : 1 h 54 min
Bit rate : 36.1 kb/s
Count of elements : 2624
Stream size : 29.5 MiB (0%)
Title : Commentary #1
Language : Italian
Default : No
Forced : No

Text #28
ID : 33
Format : PGS
Codec ID : S_HDMV/PGS
Codec ID/Info : Picture based subtitle format used on BDs/HD-DVDs
Duration : 1 h 54 min
Bit rate : 35.3 kb/s
Count of elements : 1682
Stream size : 28.9 MiB (0%)
Title : Commentary #1
Language : Japanese
Default : No
Forced : No

Text #29
ID : 34
Format : PGS
Codec ID : S_HDMV/PGS
Codec ID/Info : Picture based subtitle format used on BDs/HD-DVDs
Duration : 1 h 54 min
Bit rate : 21.7 kb/s
Count of elements : 2078
Stream size : 17.8 MiB (0%)
Title : Commentary #1
Language : Korean
Default : No
Forced : No

Text #30
ID : 35
Format : PGS
Codec ID : S_HDMV/PGS
Codec ID/Info : Picture based subtitle format used on BDs/HD-DVDs
Duration : 1 h 58 min
Bit rate : 41.8 kb/s
Count of elements : 2630
Stream size : 35.4 MiB (0%)
Title : Commentary #1
Language : Spanish
Default : No
Forced : No

Text #31
ID : 36
Format : PGS
Codec ID : S_HDMV/PGS
Codec ID/Info : Picture based subtitle format used on BDs/HD-DVDs
Duration : 1 h 56 min
Bit rate : 44.9 kb/s
Count of elements : 2722
Stream size : 37.2 MiB (0%)
Title : Commentary #2
Language : English
Default : No
Forced : No

Text #32
ID : 37
Format : PGS
Codec ID : S_HDMV/PGS
Codec ID/Info : Picture based subtitle format used on BDs/HD-DVDs
Duration : 1 h 58 min
Bit rate : 31.6 kb/s
Count of elements : 2724
Stream size : 26.8 MiB (0%)
Title : Commentary #2
Language : French
Default : No
Forced : No

Text #33
ID : 38
Format : PGS
Codec ID : S_HDMV/PGS
Codec ID/Info : Picture based subtitle format used on BDs/HD-DVDs
Duration : 1 h 58 min
Bit rate : 41.3 kb/s
Count of elements : 2722
Stream size : 35.0 MiB (0%)
Title : Commentary #2
Language : German
Default : No
Forced : No

Text #34
ID : 39
Format : PGS
Codec ID : S_HDMV/PGS
Codec ID/Info : Picture based subtitle format used on BDs/HD-DVDs
Duration : 1 h 56 min
Bit rate : 35.6 kb/s
Count of elements : 2722
Stream size : 29.6 MiB (0%)
Title : Commentary #2
Language : Italian
Default : No
Forced : No

Text #35
ID : 40
Format : PGS
Codec ID : S_HDMV/PGS
Codec ID/Info : Picture based subtitle format used on BDs/HD-DVDs
Duration : 1 h 56 min
Bit rate : 25.6 kb/s
Count of elements : 2070
Stream size : 21.3 MiB (0%)
Title : Commentary #2
Language : Japanese
Default : No
Forced : No

Text #36
ID : 41
Format : PGS
Codec ID : S_HDMV/PGS
Codec ID/Info : Picture based subtitle format used on BDs/HD-DVDs
Duration : 1 h 56 min
Bit rate : 25.2 kb/s
Count of elements : 2722
Stream size : 20.9 MiB (0%)
Title : Commentary #2
Language : Korean
Default : No
Forced : No

Text #37
ID : 42
Format : PGS
Codec ID : S_HDMV/PGS
Codec ID/Info : Picture based subtitle format used on BDs/HD-DVDs
Duration : 1 h 58 min
Bit rate : 39.3 kb/s
Count of elements : 2724
Stream size : 33.3 MiB (0%)
Title : Commentary #2
Language : Spanish
Default : No
Forced : No

Menu
00:00:00.000 : Opening Credits
00:03:08.938 : Court-Martial
00:07:02.171 : Exile
00:13:36.023 : Heading Home
00:16:43.168 : Distress Calls
00:27:29.939 : Time Warp
00:36:06.747 : San Francisco
00:45:25.389 : George & Gracie
00:51:33.423 : Colorful Metaphors
00:58:01.769 : Professor Scott
01:02:57.648 : The Truth
01:12:17.666 : Spycatchers
01:17:38.654 : Unwelcome Guest
01:22:44.542 : Rescue
01:28:29.304 : Whale Hunt
01:37:17.081 : Crash Landing
01:48:14.279 : The Enterprise
01:55:00.727 : End Credits

 

Leave a Reply

Your email address will not be published. Required fields are marked *