Star Trek III The Search for Spock (1984) | 720p & 1080p & 2160p BluRay x265-BvS

Admiral Kirk and his bridge crew risk their careers stealing the decommissioned U.S.S. Enterprise to return to the restricted Genesis Planet to recover Spock’s body.

Links: IMDB  – Trailer

Note: In English with English/French/German/Spanish Selectable Subtitles

DOWNLOAD

VIP

This content is reserved for registered users. BUY A VIP MEMBERSHIP HERE and login to be able to see it.

FREE

  • Star.Trek.III.The.Search.for.Spock.1984.2160p.UHD.BluRay.Remux.HDR.DV.HEVC.TrueHD.7.1-TeMPo – 51.80GB (ONLY VIP)

NFO

Star.Trek.III.The.Search.for.Spock.1984.2160p.UHD.BluRay.Remux.HDR.DV.HEVC.TrueHD.7.1-TeMPo

General
Unique ID : 202003661545104087076439578342247385519 (0x97F87D74DEF1ADFB0318218946AC49AF)
Complete name : Star.Trek.III.The.Search.for.Spock.1984.2160p.UHD.BluRay.Remux.HDR.DV.HEVC.TrueHD.7.1-TeMPo.mkv
Format : Matroska
Format version : Version 4
File size : 51.9 GiB
Duration : 1 h 45 min
Overall bit rate mode : Variable
Overall bit rate : 70.6 Mb/s
Movie name : Star Trek III: The Search for Spock (1984)
Encoded date : UTC 2021-09-06 20:33:14
Writing application : mkvmerge v61.0.0 (‘So’) 64-bit
Writing library : libebml v1.4.2 + libmatroska v1.6.4
IMDB : tt0088170
TMDB : movie/157

Video
ID : 1
ID in the original source medium : 4113 (0x1011)
Format : HEVC
Format/Info : High Efficiency Video Coding
Format profile : Main [email protected]@High
HDR format : SMPTE ST 2086, HDR10 compatible
Codec ID : V_MPEGH/ISO/HEVC
Duration : 1 h 45 min
Bit rate : 62.8 Mb/s
Width : 3 840 pixels
Height : 2 160 pixels
Display aspect ratio : 16:9
Frame rate mode : Constant
Frame rate : 23.976 (24000/1001) FPS
Color space : YUV
Chroma subsampling : 4:2:0 (Type 2)
Bit depth : 10 bits
Bits/(Pixel*Frame) : 0.316
Stream size : 46.2 GiB (89%)
Title : MPEG-H HEVC Video / 56506 kbps / 2160p / 23.976 fps / 16:9 / Main 10 @ Level 5.1 @ High / 4:2:0 / 10 bits / 1000nits / HDR10 / BT.2020 / Dolby Vision FEL @ 6287 kbps
Language : English
Default : Yes
Forced : No
Color range : Limited
Color primaries : BT.2020
Transfer characteristics : PQ
Matrix coefficients : BT.2020 non-constant
Mastering display color primaries : Display P3
Mastering display luminance : min: 0.0001 cd/m2, max: 1000 cd/m2
Original source medium : Blu-ray

Audio #1
ID : 2
Format : MLP FBA
Format/Info : Meridian Lossless Packing FBA
Commercial name : Dolby TrueHD
Codec ID : A_TRUEHD
Duration : 1 h 45 min
Bit rate mode : Variable
Bit rate : 5 401 kb/s
Maximum bit rate : 7 383 kb/s
Channel(s) : 8 channels
Channel layout : L R C LFE Ls Rs Lb Rb
Sampling rate : 48.0 kHz
Frame rate : 1 200.000 FPS (40 SPF)
Compression mode : Lossless
Stream size : 3.97 GiB (8%)
Title : Dolby TrueHD Audio / 7.1 / 48 kHz / 5401 kbps / 24-bit
Language : English
Default : Yes
Forced : No

Audio #2
ID : 3
Format : AC-3
Format/Info : Audio Coding 3
Commercial name : Dolby Digital
Codec ID : A_AC3
Duration : 1 h 45 min
Bit rate mode : Constant
Bit rate : 640 kb/s
Channel(s) : 6 channels
Channel layout : L R C LFE Ls Rs
Sampling rate : 48.0 kHz
Frame rate : 31.250 FPS (1536 SPF)
Compression mode : Lossy
Stream size : 482 MiB (1%)
Title : Compatibility Track / Dolby Digital Audio / 5.1-EX / 48 kHz / 640 kbps
Language : English
Service kind : Complete Main
Default : No
Forced : No

Audio #3
ID : 4
Format : AC-3
Format/Info : Audio Coding 3
Commercial name : Dolby Digital
Codec ID : A_AC3
Duration : 1 h 45 min
Bit rate mode : Constant
Bit rate : 224 kb/s
Channel(s) : 2 channels
Channel layout : L R
Sampling rate : 48.0 kHz
Frame rate : 31.250 FPS (1536 SPF)
Compression mode : Lossy
Stream size : 169 MiB (0%)
Title : Commentary by director Leonard Nimoy, writer/producer Harve Bennett, director of photography Charles Correll and actress Robin Curtis
Language : English
Service kind : Complete Main
Default : No
Forced : No

Audio #4
ID : 5
Format : AC-3
Format/Info : Audio Coding 3
Commercial name : Dolby Digital
Codec ID : A_AC3
Duration : 1 h 45 min
Bit rate mode : Constant
Bit rate : 224 kb/s
Channel(s) : 2 channels
Channel layout : L R
Sampling rate : 48.0 kHz
Frame rate : 31.250 FPS (1536 SPF)
Compression mode : Lossy
Stream size : 169 MiB (0%)
Title : Commentary by Star Trek TV series producer Ronald D. Moore and staffer Michael Taylor
Language : English
Service kind : Complete Main
Default : No
Forced : No

Text #1
ID : 6
Format : PGS
Codec ID : S_HDMV/PGS
Codec ID/Info : Picture based subtitle format used on BDs/HD-DVDs
Duration : 1 h 12 min
Bit rate : 880 b/s
Count of elements : 74
Stream size : 467 KiB (0%)
Title : Forced for non-English dialogue
Language : English
Default : Yes
Forced : Yes

Text #2
ID : 7
Format : PGS
Codec ID : S_HDMV/PGS
Codec ID/Info : Picture based subtitle format used on BDs/HD-DVDs
Duration : 1 h 38 min
Bit rate : 28.9 kb/s
Count of elements : 1952
Stream size : 20.3 MiB (0%)
Language : English
Default : No
Forced : No

Text #3
ID : 8
Format : PGS
Codec ID : S_HDMV/PGS
Codec ID/Info : Picture based subtitle format used on BDs/HD-DVDs
Duration : 1 h 38 min
Bit rate : 32.4 kb/s
Count of elements : 2250
Stream size : 22.9 MiB (0%)
Title : SDH
Language : English
Default : No
Forced : No

Text #4
ID : 9
Format : PGS
Codec ID : S_HDMV/PGS
Codec ID/Info : Picture based subtitle format used on BDs/HD-DVDs
Duration : 1 h 44 min
Bit rate : 13.1 kb/s
Count of elements : 1718
Stream size : 9.85 MiB (0%)
Language : Arabic
Default : No
Forced : No

Text #5
ID : 10
Format : PGS
Codec ID : S_HDMV/PGS
Codec ID/Info : Picture based subtitle format used on BDs/HD-DVDs
Duration : 1 h 44 min
Bit rate : 17.5 kb/s
Count of elements : 1716
Stream size : 13.1 MiB (0%)
Title : Traditional (Hong Kong)
Language : Chinese
Default : No
Forced : No

Text #6
ID : 11
Format : PGS
Codec ID : S_HDMV/PGS
Codec ID/Info : Picture based subtitle format used on BDs/HD-DVDs
Duration : 1 h 44 min
Bit rate : 20.4 kb/s
Count of elements : 1716
Stream size : 15.3 MiB (0%)
Title : Traditional (Taiwan)
Language : Chinese
Default : No
Forced : No

Text #7
ID : 12
Format : PGS
Codec ID : S_HDMV/PGS
Codec ID/Info : Picture based subtitle format used on BDs/HD-DVDs
Duration : 1 h 44 min
Bit rate : 25.3 kb/s
Count of elements : 1720
Stream size : 18.9 MiB (0%)
Language : Croatian
Default : No
Forced : No

Text #8
ID : 13
Format : PGS
Codec ID : S_HDMV/PGS
Codec ID/Info : Picture based subtitle format used on BDs/HD-DVDs
Duration : 1 h 44 min
Bit rate : 22.2 kb/s
Count of elements : 1416
Stream size : 16.6 MiB (0%)
Language : Danish
Default : No
Forced : No

Text #9
ID : 14
Format : PGS
Codec ID : S_HDMV/PGS
Codec ID/Info : Picture based subtitle format used on BDs/HD-DVDs
Duration : 1 h 44 min
Bit rate : 21.7 kb/s
Count of elements : 1334
Stream size : 16.2 MiB (0%)
Language : Dutch
Default : No
Forced : No

Text #10
ID : 15
Format : PGS
Codec ID : S_HDMV/PGS
Codec ID/Info : Picture based subtitle format used on BDs/HD-DVDs
Duration : 1 h 44 min
Bit rate : 23.4 kb/s
Count of elements : 1538
Stream size : 17.5 MiB (0%)
Language : Finnish
Default : No
Forced : No

Text #11
ID : 16
Format : PGS
Codec ID : S_HDMV/PGS
Codec ID/Info : Picture based subtitle format used on BDs/HD-DVDs
Duration : 1 h 44 min
Bit rate : 23.4 kb/s
Count of elements : 1726
Stream size : 17.6 MiB (0%)
Language : French
Default : No
Forced : No

Text #12
ID : 17
Format : PGS
Codec ID : S_HDMV/PGS
Codec ID/Info : Picture based subtitle format used on BDs/HD-DVDs
Duration : 1 h 44 min
Bit rate : 27.1 kb/s
Count of elements : 1718
Stream size : 20.3 MiB (0%)
Language : German
Default : No
Forced : No

Text #13
ID : 18
Format : PGS
Codec ID : S_HDMV/PGS
Codec ID/Info : Picture based subtitle format used on BDs/HD-DVDs
Duration : 1 h 44 min
Bit rate : 21.3 kb/s
Count of elements : 1974
Stream size : 16.0 MiB (0%)
Language : Hindi
Default : No
Forced : No

Text #14
ID : 19
Format : PGS
Codec ID : S_HDMV/PGS
Codec ID/Info : Picture based subtitle format used on BDs/HD-DVDs
Duration : 1 h 44 min
Bit rate : 29.1 kb/s
Count of elements : 1972
Stream size : 21.8 MiB (0%)
Language : Indonesian
Default : No
Forced : No

Text #15
ID : 20
Format : PGS
Codec ID : S_HDMV/PGS
Codec ID/Info : Picture based subtitle format used on BDs/HD-DVDs
Duration : 1 h 44 min
Bit rate : 26.4 kb/s
Count of elements : 1762
Stream size : 19.8 MiB (0%)
Language : Italian
Default : No
Forced : No

Text #16
ID : 21
Format : PGS
Codec ID : S_HDMV/PGS
Codec ID/Info : Picture based subtitle format used on BDs/HD-DVDs
Duration : 1 h 39 min
Bit rate : 19.9 kb/s
Count of elements : 1852
Stream size : 14.1 MiB (0%)
Language : Japanese
Default : No
Forced : No

Text #17
ID : 22
Format : PGS
Codec ID : S_HDMV/PGS
Codec ID/Info : Picture based subtitle format used on BDs/HD-DVDs
Duration : 1 h 44 min
Bit rate : 14.5 kb/s
Count of elements : 1758
Stream size : 10.9 MiB (0%)
Language : Korean
Default : No
Forced : No

Text #18
ID : 23
Format : PGS
Codec ID : S_HDMV/PGS
Codec ID/Info : Picture based subtitle format used on BDs/HD-DVDs
Duration : 1 h 44 min
Bit rate : 26.3 kb/s
Count of elements : 1716
Stream size : 19.7 MiB (0%)
Language : Norwegian
Default : No
Forced : No

Text #19
ID : 24
Format : PGS
Codec ID : S_HDMV/PGS
Codec ID/Info : Picture based subtitle format used on BDs/HD-DVDs
Duration : 1 h 39 min
Bit rate : 27.9 kb/s
Count of elements : 1972
Stream size : 19.8 MiB (0%)
Title : Brazilian
Language : Portuguese
Default : No
Forced : No

Text #20
ID : 25
Format : PGS
Codec ID : S_HDMV/PGS
Codec ID/Info : Picture based subtitle format used on BDs/HD-DVDs
Duration : 1 h 44 min
Bit rate : 24.9 kb/s
Count of elements : 1730
Stream size : 18.7 MiB (0%)
Title : Iberian
Language : Portuguese
Default : No
Forced : No

Text #21
ID : 26
Format : PGS
Codec ID : S_HDMV/PGS
Codec ID/Info : Picture based subtitle format used on BDs/HD-DVDs
Duration : 1 h 44 min
Bit rate : 27.0 kb/s
Count of elements : 1720
Stream size : 20.3 MiB (0%)
Title : Castilian
Language : Spanish
Default : No
Forced : No

Text #22
ID : 27
Format : PGS
Codec ID : S_HDMV/PGS
Codec ID/Info : Picture based subtitle format used on BDs/HD-DVDs
Duration : 1 h 39 min
Bit rate : 28.4 kb/s
Count of elements : 1972
Stream size : 20.1 MiB (0%)
Title : Latin American
Language : Spanish
Default : No
Forced : No

Text #23
ID : 28
Format : PGS
Codec ID : S_HDMV/PGS
Codec ID/Info : Picture based subtitle format used on BDs/HD-DVDs
Duration : 1 h 44 min
Bit rate : 20.9 kb/s
Count of elements : 1406
Stream size : 15.7 MiB (0%)
Language : Swedish
Default : No
Forced : No

Text #24
ID : 29
Format : PGS
Codec ID : S_HDMV/PGS
Codec ID/Info : Picture based subtitle format used on BDs/HD-DVDs
Duration : 1 h 44 min
Bit rate : 21.5 kb/s
Count of elements : 1738
Stream size : 16.1 MiB (0%)
Language : Thai
Default : No
Forced : No

Text #25
ID : 30
Format : PGS
Codec ID : S_HDMV/PGS
Codec ID/Info : Picture based subtitle format used on BDs/HD-DVDs
Duration : 1 h 40 min
Bit rate : 49.8 kb/s
Count of elements : 2326
Stream size : 35.8 MiB (0%)
Title : Commentary #1
Language : English
Default : No
Forced : No

Text #26
ID : 31
Format : PGS
Codec ID : S_HDMV/PGS
Codec ID/Info : Picture based subtitle format used on BDs/HD-DVDs
Duration : 1 h 44 min
Bit rate : 42.0 kb/s
Count of elements : 2012
Stream size : 31.4 MiB (0%)
Title : Commentary #1
Language : French
Default : No
Forced : No

Text #27
ID : 32
Format : PGS
Codec ID : S_HDMV/PGS
Codec ID/Info : Picture based subtitle format used on BDs/HD-DVDs
Duration : 1 h 44 min
Bit rate : 41.1 kb/s
Count of elements : 1904
Stream size : 30.8 MiB (0%)
Title : Commentary #1
Language : German
Default : No
Forced : No

Text #28
ID : 33
Format : PGS
Codec ID : S_HDMV/PGS
Codec ID/Info : Picture based subtitle format used on BDs/HD-DVDs
Duration : 1 h 44 min
Bit rate : 38.8 kb/s
Count of elements : 1974
Stream size : 29.0 MiB (0%)
Title : Commentary #1
Language : Italian
Default : No
Forced : No

Text #29
ID : 34
Format : PGS
Codec ID : S_HDMV/PGS
Codec ID/Info : Picture based subtitle format used on BDs/HD-DVDs
Duration : 1 h 40 min
Bit rate : 37.6 kb/s
Count of elements : 1954
Stream size : 27.0 MiB (0%)
Title : Commentary #1
Language : Japanese
Default : No
Forced : No

Text #30
ID : 35
Format : PGS
Codec ID : S_HDMV/PGS
Codec ID/Info : Picture based subtitle format used on BDs/HD-DVDs
Duration : 1 h 44 min
Bit rate : 26.7 kb/s
Count of elements : 1902
Stream size : 19.9 MiB (0%)
Title : Commentary #1
Language : Korean
Default : No
Forced : No

Text #31
ID : 36
Format : PGS
Codec ID : S_HDMV/PGS
Codec ID/Info : Picture based subtitle format used on BDs/HD-DVDs
Duration : 1 h 44 min
Bit rate : 37.6 kb/s
Count of elements : 1912
Stream size : 28.1 MiB (0%)
Title : Commentary #1
Language : Spanish
Default : No
Forced : No

Text #32
ID : 37
Format : PGS
Codec ID : S_HDMV/PGS
Codec ID/Info : Picture based subtitle format used on BDs/HD-DVDs
Duration : 1 h 39 min
Bit rate : 76.3 kb/s
Count of elements : 3546
Stream size : 54.4 MiB (0%)
Title : Commentary #2
Language : English
Default : No
Forced : No

Text #33
ID : 38
Format : PGS
Codec ID : S_HDMV/PGS
Codec ID/Info : Picture based subtitle format used on BDs/HD-DVDs
Duration : 1 h 45 min
Bit rate : 60.9 kb/s
Count of elements : 3550
Stream size : 45.8 MiB (0%)
Title : Commentary #2
Language : French
Default : No
Forced : No

Text #34
ID : 39
Format : PGS
Codec ID : S_HDMV/PGS
Codec ID/Info : Picture based subtitle format used on BDs/HD-DVDs
Duration : 1 h 45 min
Bit rate : 64.6 kb/s
Count of elements : 3546
Stream size : 48.6 MiB (0%)
Title : Commentary #2
Language : German
Default : No
Forced : No

Text #35
ID : 40
Format : PGS
Codec ID : S_HDMV/PGS
Codec ID/Info : Picture based subtitle format used on BDs/HD-DVDs
Duration : 1 h 45 min
Bit rate : 59.6 kb/s
Count of elements : 3548
Stream size : 44.8 MiB (0%)
Title : Commentary #2
Language : Italian
Default : No
Forced : No

Text #36
ID : 41
Format : PGS
Codec ID : S_HDMV/PGS
Codec ID/Info : Picture based subtitle format used on BDs/HD-DVDs
Duration : 1 h 39 min
Bit rate : 44.9 kb/s
Count of elements : 2582
Stream size : 32.1 MiB (0%)
Title : Commentary #2
Language : Japanese
Default : No
Forced : No

Text #37
ID : 42
Format : PGS
Codec ID : S_HDMV/PGS
Codec ID/Info : Picture based subtitle format used on BDs/HD-DVDs
Duration : 1 h 45 min
Bit rate : 37.2 kb/s
Count of elements : 3548
Stream size : 28.0 MiB (0%)
Title : Commentary #2
Language : Korean
Default : No
Forced : No

Text #38
ID : 43
Format : PGS
Codec ID : S_HDMV/PGS
Codec ID/Info : Picture based subtitle format used on BDs/HD-DVDs
Duration : 1 h 45 min
Bit rate : 60.0 kb/s
Count of elements : 3548
Stream size : 45.1 MiB (0%)
Title : Commentary #2
Language : Spanish
Default : No
Forced : No

Menu
00:00:00.000 : Genesis
00:11:06.290 : A Sign of Life
00:22:36.897 : Vulcan Mind Meld
00:31:33.725 : Planet Forbidden
00:41:09.091 : Stealing the Enterprise
00:47:22.965 : The Vulcan Child
00:56:09.741 : Klingon Bird of Prey
01:11:08.430 : Enterprise Destruct Sequence
01:16:25.581 : The Aging Planet
01:26:20.300 : The Needs of the One
01:39:36.679 : End Credits

Leave a Reply

Your email address will not be published. Required fields are marked *