Star Trek II The Wrath of Khan (1982) | 720p & 1080p & 2160p BluRay x265-BvS

With the assistance of the Enterprise crew, Admiral Kirk must stop an old nemesis, Khan Noonien Singh, from using the life-generating Genesis Device as the ultimate weapon.

Links: IMDB Trailer

Note: In English with English/French/German/Spanish Selectable Subtitles

DOWNLOAD

VIP

This content is reserved for registered users. BUY A VIP MEMBERSHIP HERE and login to be able to see it.

FREE

  • Star.Trek.II.The.Wrath.of.Khan.1982.2160p.UHD.BluRay.Remux.HDR.DV.HEVC.TrueHD.7.1-TeMPo – 47.80GB (ONLY VIP)

NFO

Star.Trek.II.The.Wrath.of.Khan.1982.2160p.UHD.BluRay.Remux.HDR.DV.HEVC.TrueHD.7.1-TeMPo

General
Unique ID : 199238098205112444569058418464354642643 (0x95E3DCA812D5321463CDB8EA8AF2AAD3)
Complete name : Star.Trek.II.The.Wrath.of.Khan.1982.2160p.UHD.BluRay.Remux.HDR.DV.HEVC.TrueHD.7.1-TeMPo.mkv
Format : Matroska
Format version : Version 4
File size : 47.9 GiB
Duration : 1 h 53 min
Overall bit rate mode : Variable
Overall bit rate : 60.6 Mb/s
Movie name : Star Trek II: The Wrath of Khan (1982)
Encoded date : UTC 2021-09-05 13:11:24
Writing application : mkvmerge v61.0.0 (‘So’) 64-bit
Writing library : libebml v1.4.2 + libmatroska v1.6.4
IMDB : tt0084726
TMDB : movie/154

Video
ID : 1
ID in the original source medium : 4113 (0x1011)
Format : HEVC
Format/Info : High Efficiency Video Coding
Format profile : Main [email protected]@High
HDR format : SMPTE ST 2086, HDR10 compatible
Codec ID : V_MPEGH/ISO/HEVC
Duration : 1 h 53 min
Bit rate : 54.1 Mb/s
Width : 3 840 pixels
Height : 2 160 pixels
Display aspect ratio : 16:9
Frame rate mode : Constant
Frame rate : 23.976 (23976/1000) FPS
Original frame rate : 23.976 (24000/1001) FPS
Color space : YUV
Chroma subsampling : 4:2:0 (Type 2)
Bit depth : 10 bits
Bits/(Pixel*Frame) : 0.272
Stream size : 42.8 GiB (89%)
Title : MPEG-H HEVC Video / 48685 kbps / 2160p / 23.976 fps / 16:9 / Main 10 @ Level 5.1 @ High / 4:2:0 / 10 bits / 1000nits / HDR10 / BT.2020 / Dolby Vision FEL @ 5462 kbps
Language : English
Default : Yes
Forced : No
Color range : Limited
Color primaries : BT.2020
Transfer characteristics : PQ
Matrix coefficients : BT.2020 non-constant
Mastering display color primaries : Display P3
Mastering display luminance : min: 0.0001 cd/m2, max: 1000 cd/m2
Original source medium : Blu-ray

Audio #1
ID : 2
Format : MLP FBA
Format/Info : Meridian Lossless Packing FBA
Commercial name : Dolby TrueHD
Codec ID : A_TRUEHD
Duration : 1 h 53 min
Bit rate mode : Variable
Bit rate : 4 351 kb/s
Maximum bit rate : 5 466 kb/s
Channel(s) : 8 channels
Channel layout : L R C LFE Ls Rs Lb Rb
Sampling rate : 48.0 kHz
Frame rate : 1 200.000 FPS (40 SPF)
Compression mode : Lossless
Stream size : 3.44 GiB (7%)
Title : Dolby TrueHD Audio / 7.1 / 48 kHz / 4351 kbps / 24-bit
Language : English
Default : Yes
Forced : No

Audio #2
ID : 3
Format : AC-3
Format/Info : Audio Coding 3
Commercial name : Dolby Digital
Codec ID : A_AC3
Duration : 1 h 53 min
Bit rate mode : Constant
Bit rate : 640 kb/s
Channel(s) : 6 channels
Channel layout : L R C LFE Ls Rs
Sampling rate : 48.0 kHz
Frame rate : 31.250 FPS (1536 SPF)
Compression mode : Lossy
Stream size : 518 MiB (1%)
Title : Compatibility Track / Dolby Digital Audio / 5.1-EX / 48 kHz / 640 kbps
Language : English
Service kind : Complete Main
Default : No
Forced : No

Audio #3
ID : 4
Format : AC-3
Format/Info : Audio Coding 3
Commercial name : Dolby Digital
Codec ID : A_AC3
Duration : 1 h 53 min
Bit rate mode : Constant
Bit rate : 224 kb/s
Channel(s) : 2 channels
Channel layout : L R
Sampling rate : 48.0 kHz
Frame rate : 31.250 FPS (1536 SPF)
Compression mode : Lossy
Stream size : 181 MiB (0%)
Title : Commentary by director Nicholas Meyer
Language : English
Service kind : Complete Main
Default : No
Forced : No

Audio #4
ID : 5
Format : AC-3
Format/Info : Audio Coding 3
Commercial name : Dolby Digital
Codec ID : A_AC3
Duration : 1 h 53 min
Bit rate mode : Constant
Bit rate : 224 kb/s
Channel(s) : 2 channels
Channel layout : L R
Sampling rate : 48.0 kHz
Frame rate : 31.250 FPS (1536 SPF)
Compression mode : Lossy
Stream size : 181 MiB (0%)
Title : Commentary by director Nicholas Meyer and ‘Star Trek: Enterprise’ TV series producer Manny Coto
Language : English
Service kind : Complete Main
Default : No
Forced : No

Text #1
ID : 6
Format : PGS
Codec ID : S_HDMV/PGS
Codec ID/Info : Picture based subtitle format used on BDs/HD-DVDs
Duration : 1 h 44 min
Bit rate : 33.4 kb/s
Count of elements : 2172
Stream size : 25.0 MiB (0%)
Language : English
Default : No
Forced : No

Text #2
ID : 7
Format : PGS
Codec ID : S_HDMV/PGS
Codec ID/Info : Picture based subtitle format used on BDs/HD-DVDs
Duration : 1 h 44 min
Bit rate : 35.9 kb/s
Count of elements : 2340
Stream size : 26.8 MiB (0%)
Title : SDH
Language : English
Default : No
Forced : No

Text #3
ID : 8
Format : PGS
Codec ID : S_HDMV/PGS
Codec ID/Info : Picture based subtitle format used on BDs/HD-DVDs
Duration : 1 h 49 min
Bit rate : 15.6 kb/s
Count of elements : 1978
Stream size : 12.3 MiB (0%)
Language : Arabic
Default : No
Forced : No

Text #4
ID : 9
Format : PGS
Codec ID : S_HDMV/PGS
Codec ID/Info : Picture based subtitle format used on BDs/HD-DVDs
Duration : 1 h 49 min
Bit rate : 29.0 kb/s
Count of elements : 1976
Stream size : 22.8 MiB (0%)
Language : Croatian
Default : No
Forced : No

Text #5
ID : 10
Format : PGS
Codec ID : S_HDMV/PGS
Codec ID/Info : Picture based subtitle format used on BDs/HD-DVDs
Duration : 1 h 50 min
Bit rate : 26.1 kb/s
Count of elements : 1794
Stream size : 20.6 MiB (0%)
Language : Danish
Default : No
Forced : No

Text #6
ID : 11
Format : PGS
Codec ID : S_HDMV/PGS
Codec ID/Info : Picture based subtitle format used on BDs/HD-DVDs
Duration : 1 h 50 min
Bit rate : 25.1 kb/s
Count of elements : 1528
Stream size : 19.7 MiB (0%)
Language : Dutch
Default : No
Forced : No

Text #7
ID : 12
Format : PGS
Codec ID : S_HDMV/PGS
Codec ID/Info : Picture based subtitle format used on BDs/HD-DVDs
Duration : 1 h 50 min
Bit rate : 26.6 kb/s
Count of elements : 1790
Stream size : 20.9 MiB (0%)
Language : Finnish
Default : No
Forced : No

Text #8
ID : 13
Format : PGS
Codec ID : S_HDMV/PGS
Codec ID/Info : Picture based subtitle format used on BDs/HD-DVDs
Duration : 1 h 52 min
Bit rate : 25.8 kb/s
Count of elements : 2028
Stream size : 20.7 MiB (0%)
Language : French
Default : No
Forced : No

Text #9
ID : 14
Format : PGS
Codec ID : S_HDMV/PGS
Codec ID/Info : Picture based subtitle format used on BDs/HD-DVDs
Duration : 1 h 52 min
Bit rate : 27.7 kb/s
Count of elements : 1992
Stream size : 22.3 MiB (0%)
Language : German
Default : No
Forced : No

Text #10
ID : 15
Format : PGS
Codec ID : S_HDMV/PGS
Codec ID/Info : Picture based subtitle format used on BDs/HD-DVDs
Duration : 1 h 51 min
Bit rate : 30.1 kb/s
Count of elements : 2062
Stream size : 24.2 MiB (0%)
Language : Italian
Default : No
Forced : No

Text #11
ID : 16
Format : PGS
Codec ID : S_HDMV/PGS
Codec ID/Info : Picture based subtitle format used on BDs/HD-DVDs
Duration : 1 h 44 min
Bit rate : 19.6 kb/s
Count of elements : 2036
Stream size : 14.6 MiB (0%)
Language : Japanese
Default : No
Forced : No

Text #12
ID : 17
Format : PGS
Codec ID : S_HDMV/PGS
Codec ID/Info : Picture based subtitle format used on BDs/HD-DVDs
Duration : 1 h 50 min
Bit rate : 24.2 kb/s
Count of elements : 1592
Stream size : 19.1 MiB (0%)
Language : Norwegian
Default : No
Forced : No

Text #13
ID : 18
Format : PGS
Codec ID : S_HDMV/PGS
Codec ID/Info : Picture based subtitle format used on BDs/HD-DVDs
Duration : 1 h 46 min
Bit rate : 28.2 kb/s
Count of elements : 1864
Stream size : 21.5 MiB (0%)
Title : Brazilian
Language : Portuguese
Default : No
Forced : No

Text #14
ID : 19
Format : PGS
Codec ID : S_HDMV/PGS
Codec ID/Info : Picture based subtitle format used on BDs/HD-DVDs
Duration : 1 h 51 min
Bit rate : 28.9 kb/s
Count of elements : 2192
Stream size : 23.1 MiB (0%)
Title : Iberian
Language : Portuguese
Default : No
Forced : No

Text #15
ID : 20
Format : PGS
Codec ID : S_HDMV/PGS
Codec ID/Info : Picture based subtitle format used on BDs/HD-DVDs
Duration : 1 h 52 min
Bit rate : 30.4 kb/s
Count of elements : 1996
Stream size : 24.4 MiB (0%)
Title : Castilian
Language : Spanish
Default : No
Forced : No

Text #16
ID : 21
Format : PGS
Codec ID : S_HDMV/PGS
Codec ID/Info : Picture based subtitle format used on BDs/HD-DVDs
Duration : 1 h 46 min
Bit rate : 28.7 kb/s
Count of elements : 1998
Stream size : 21.9 MiB (0%)
Title : Latin American
Language : Spanish
Default : No
Forced : No

Text #17
ID : 22
Format : PGS
Codec ID : S_HDMV/PGS
Codec ID/Info : Picture based subtitle format used on BDs/HD-DVDs
Duration : 1 h 50 min
Bit rate : 23.8 kb/s
Count of elements : 1600
Stream size : 18.7 MiB (0%)
Language : Swedish
Default : No
Forced : No

Text #18
ID : 23
Format : PGS
Codec ID : S_HDMV/PGS
Codec ID/Info : Picture based subtitle format used on BDs/HD-DVDs
Duration : 1 h 48 min
Bit rate : 45.8 kb/s
Count of elements : 2463
Stream size : 35.4 MiB (0%)
Title : Commentary #1
Language : English
Default : No
Forced : No

Text #19
ID : 24
Format : PGS
Codec ID : S_HDMV/PGS
Codec ID/Info : Picture based subtitle format used on BDs/HD-DVDs
Duration : 1 h 52 min
Bit rate : 40.9 kb/s
Count of elements : 2465
Stream size : 32.9 MiB (0%)
Title : Commentary #1
Language : French
Default : No
Forced : No

Text #20
ID : 25
Format : PGS
Codec ID : S_HDMV/PGS
Codec ID/Info : Picture based subtitle format used on BDs/HD-DVDs
Duration : 1 h 52 min
Bit rate : 45.8 kb/s
Count of elements : 2465
Stream size : 36.9 MiB (0%)
Title : Commentary #1
Language : German
Default : No
Forced : No

Text #21
ID : 26
Format : PGS
Codec ID : S_HDMV/PGS
Codec ID/Info : Picture based subtitle format used on BDs/HD-DVDs
Duration : 1 h 52 min
Bit rate : 38.7 kb/s
Count of elements : 2464
Stream size : 31.2 MiB (0%)
Title : Commentary #1
Language : Italian
Default : No
Forced : No

Text #22
ID : 27
Format : PGS
Codec ID : S_HDMV/PGS
Codec ID/Info : Picture based subtitle format used on BDs/HD-DVDs
Duration : 1 h 48 min
Bit rate : 32.4 kb/s
Count of elements : 1851
Stream size : 25.1 MiB (0%)
Title : Commentary #1
Language : Japanese
Default : No
Forced : No

Text #23
ID : 28
Format : PGS
Codec ID : S_HDMV/PGS
Codec ID/Info : Picture based subtitle format used on BDs/HD-DVDs
Duration : 1 h 52 min
Bit rate : 38.5 kb/s
Count of elements : 2465
Stream size : 31.1 MiB (0%)
Title : Commentary #1
Language : Spanish
Default : No
Forced : No

Text #24
ID : 29
Format : PGS
Codec ID : S_HDMV/PGS
Codec ID/Info : Picture based subtitle format used on BDs/HD-DVDs
Duration : 1 h 51 min
Bit rate : 52.6 kb/s
Count of elements : 2924
Stream size : 42.1 MiB (0%)
Title : Commentary #2
Language : English
Default : No
Forced : No

Text #25
ID : 30
Format : PGS
Codec ID : S_HDMV/PGS
Codec ID/Info : Picture based subtitle format used on BDs/HD-DVDs
Duration : 1 h 52 min
Bit rate : 45.9 kb/s
Count of elements : 2926
Stream size : 36.8 MiB (0%)
Title : Commentary #2
Language : French
Default : No
Forced : No

Text #26
ID : 31
Format : PGS
Codec ID : S_HDMV/PGS
Codec ID/Info : Picture based subtitle format used on BDs/HD-DVDs
Duration : 1 h 52 min
Bit rate : 52.7 kb/s
Count of elements : 2926
Stream size : 42.3 MiB (0%)
Title : Commentary #2
Language : German
Default : No
Forced : No

Text #27
ID : 32
Format : PGS
Codec ID : S_HDMV/PGS
Codec ID/Info : Picture based subtitle format used on BDs/HD-DVDs
Duration : 1 h 52 min
Bit rate : 42.6 kb/s
Count of elements : 2926
Stream size : 34.2 MiB (0%)
Title : Commentary #2
Language : Italian
Default : No
Forced : No

Text #28
ID : 33
Format : PGS
Codec ID : S_HDMV/PGS
Codec ID/Info : Picture based subtitle format used on BDs/HD-DVDs
Duration : 1 h 51 min
Bit rate : 39.0 kb/s
Count of elements : 2692
Stream size : 31.2 MiB (0%)
Title : Commentary #2
Language : Japanese
Default : No
Forced : No

Text #29
ID : 34
Format : PGS
Codec ID : S_HDMV/PGS
Codec ID/Info : Picture based subtitle format used on BDs/HD-DVDs
Duration : 1 h 52 min
Bit rate : 46.3 kb/s
Count of elements : 2926
Stream size : 37.1 MiB (0%)
Title : Commentary #2
Language : Spanish
Default : No
Forced : No

Menu
00:00:00.000 : Opening Credits
00:02:59.470 : Kobayashi Maru
00:07:44.464 : Antiques
00:11:42.118 : Khan
00:25:27.609 : The Enterprise
00:30:57.981 : New Orders
00:41:33.032 : Genesis
00:46:34.833 : Revenge
00:56:08.239 : Survivors
01:05:35.556 : Buried Alive
01:10:54.166 : Young and Old
01:15:58.512 : By the Book
01:18:07.057 : Battle Stations
01:23:16.115 : Fire!
01:28:39.730 : Warp Speed
01:35:20.297 : Life and Death
01:47:34.239 : End Credits

Leave a Reply

Your email address will not be published. Required fields are marked *