Saturday Night Fever (1977) | 720p & 1080p & 2160p BluRay x265-BvS

Saturday Night Fever (1977)

A 19-year-old Italian American named Anthony “Tony” Manero from Brooklyn, longs to escape his mundane life and escapes to the late ’70s New York disco scene, where he hopes to make it big in dancing.

Links: iMDB | Trailer

Note: In English with English/Spanish Selectable Subtitles

DOWNLOAD

VIP

This content is reserved for registered users. Sign up here o login to be able to see it. Buy your VIP membership

FREE

  • Saturday.Night.Fever.1977.2160p.HYBRID.DV.WEB-DL.TrueHD.5.1.HEVC-AjA – 23.80GB (ONLY  VIP)

NFO

Saturday.Night.Fever.1977.2160p.HYBRID.DV.WEB-DL.TrueHD.5.1.HEVC-AjA

General
Unique ID : 61272501647336459762492675816672712583 (0x2E18A791D5B42B8A16FD0942D2BBD787)
Complete name : Saturday.Night.Fever.1977.2160p.HYBRID.DV.WEB-DL.TrueHD.5.1.HEVC-AjA.mkv
Format : Matroska
Format version : Version 4
File size : 23.8 GiB
Duration : 1 h 59 min
Overall bit rate mode : Variable
Overall bit rate : 28.5 Mb/s
Movie name : Saturday Night Fever 1977 1080p Blu-ray Remux AVC TrueHD 5.1 – KRaLiMaRKo
Encoded date : UTC 2022-04-28 06:26:34
Writing application : mkvmerge v66.0.0 (‘Josie’) 64-bit
Writing library : libebml v1.4.2 + libmatroska v1.6.4

Video
ID : 1
Format : HEVC
Format/Info : High Efficiency Video Coding
Format profile : Main [email protected]@High
HDR format : Dolby Vision, Version 1.0, dvhe.05.06, BL+RPU
Codec ID : V_MPEGH/ISO/HEVC
Duration : 1 h 59 min
Bit rate : 24.7 Mb/s
Width : 3 840 pixels
Height : 2 076 pixels
Display aspect ratio : 1.85:1
Frame rate mode : Variable
Frame rate : 23.913 FPS
Original frame rate : 23.976 (24000/1001) FPS
Color space : YUV
Chroma subsampling : 4:2:0
Bit depth : 10 bits
Bits/(Pixel*Frame) : 0.130
Stream size : 20.6 GiB (87%)
Default : Yes
Forced : No

Audio #1
ID : 2
Format : MLP FBA
Format/Info : Meridian Lossless Packing FBA
Commercial name : Dolby TrueHD
Codec ID : A_TRUEHD
Duration : 1 h 59 min
Bit rate mode : Variable
Bit rate : 3 390 kb/s
Maximum bit rate : 4 950 kb/s
Channel(s) : 6 channels
Channel layout : L R C LFE Ls Rs
Sampling rate : 48.0 kHz
Frame rate : 1 200.000 FPS (40 SPF)
Compression mode : Lossless
Stream size : 2.82 GiB (12%)
Language : English
Default : Yes
Forced : No

Audio #2
ID : 3
Format : AC-3
Format/Info : Audio Coding 3
Commercial name : Dolby Digital
Codec ID : A_AC3
Duration : 1 h 59 min
Bit rate mode : Constant
Bit rate : 384 kb/s
Channel(s) : 6 channels
Channel layout : L R C LFE Ls Rs
Sampling rate : 48.0 kHz
Frame rate : 31.250 FPS (1536 SPF)
Compression mode : Lossy
Stream size : 327 MiB (1%)
Language : English
Service kind : Complete Main
Default : No
Forced : No

Text #1
ID : 4
Format : UTF-8
Codec ID : S_TEXT/UTF8
Codec ID/Info : UTF-8 Plain Text
Duration : 1 h 54 min
Bit rate : 46 b/s
Count of elements : 1401
Stream size : 39.2 KiB (0%)
Title : Danish
Language : Danish
Default : No
Forced : No

Text #2
ID : 5
Format : UTF-8
Codec ID : S_TEXT/UTF8
Codec ID/Info : UTF-8 Plain Text
Duration : 1 h 55 min
Bit rate : 49 b/s
Count of elements : 1406
Stream size : 41.7 KiB (0%)
Title : German
Language : German
Default : No
Forced : No

Text #3
ID : 6
Format : UTF-8
Codec ID : S_TEXT/UTF8
Codec ID/Info : UTF-8 Plain Text
Duration : 1 h 54 min
Bit rate : 76 b/s
Count of elements : 975
Stream size : 63.9 KiB (0%)
Title : Greek
Language : Greek
Default : No
Forced : No

Text #4
ID : 7
Format : UTF-8
Codec ID : S_TEXT/UTF8
Codec ID/Info : UTF-8 Plain Text
Duration : 1 h 58 min
Bit rate : 90 b/s
Count of elements : 2126
Stream size : 79.0 KiB (0%)
Title : English CC
Language : English
Default : No
Forced : No

Text #5
ID : 8
Format : UTF-8
Codec ID : S_TEXT/UTF8
Codec ID/Info : UTF-8 Plain Text
Duration : 1 h 55 min
Bit rate : 60 b/s
Count of elements : 1513
Stream size : 51.3 KiB (0%)
Title : Spanish Latin American
Language : Spanish
Default : No
Forced : No

Text #6
ID : 9
Format : UTF-8
Codec ID : S_TEXT/UTF8
Codec ID/Info : UTF-8 Plain Text
Duration : 1 h 54 min
Bit rate : 51 b/s
Count of elements : 1336
Stream size : 42.8 KiB (0%)
Title : Finnish
Language : Finnish
Default : No
Forced : No

Text #7
ID : 10
Format : UTF-8
Codec ID : S_TEXT/UTF8
Codec ID/Info : UTF-8 Plain Text
Duration : 1 h 55 min
Bit rate : 46 b/s
Count of elements : 1410
Stream size : 38.8 KiB (0%)
Title : French European
Language : French
Default : No
Forced : No

Text #8
ID : 11
Format : UTF-8
Codec ID : S_TEXT/UTF8
Codec ID/Info : UTF-8 Plain Text
Duration : 1 h 55 min
Bit rate : 48 b/s
Count of elements : 1435
Stream size : 40.6 KiB (0%)
Title : Italian
Language : Italian
Default : No
Forced : No

Text #9
ID : 12
Format : UTF-8
Codec ID : S_TEXT/UTF8
Codec ID/Info : UTF-8 Plain Text
Duration : 1 h 54 min
Bit rate : 42 b/s
Count of elements : 1214
Stream size : 36.0 KiB (0%)
Title : Dutch
Language : Dutch
Default : No
Forced : No

Text #10
ID : 13
Format : UTF-8
Codec ID : S_TEXT/UTF8
Codec ID/Info : UTF-8 Plain Text
Duration : 1 h 54 min
Bit rate : 44 b/s
Count of elements : 1416
Stream size : 37.4 KiB (0%)
Title : Norwegian
Language : Norwegian
Default : No
Forced : No

Text #11
ID : 14
Format : UTF-8
Codec ID : S_TEXT/UTF8
Codec ID/Info : UTF-8 Plain Text
Duration : 1 h 54 min
Bit rate : 44 b/s
Count of elements : 978
Stream size : 37.4 KiB (0%)
Title : Polish
Language : Polish
Default : No
Forced : No

Text #12
ID : 15
Format : UTF-8
Codec ID : S_TEXT/UTF8
Codec ID/Info : UTF-8 Plain Text
Duration : 1 h 54 min
Bit rate : 40 b/s
Count of elements : 977
Stream size : 33.9 KiB (0%)
Title : Slovenian
Language : Slovenian
Default : No
Forced : No

Text #13
ID : 16
Format : UTF-8
Codec ID : S_TEXT/UTF8
Codec ID/Info : UTF-8 Plain Text
Duration : 1 h 54 min
Bit rate : 45 b/s
Count of elements : 1274
Stream size : 38.2 KiB (0%)
Title : Swedish
Language : Swedish
Default : No
Forced : No

Menu
00:00:00.000 : en:Chapter 01
00:06:37.397 : en:Chapter 02
00:10:33.883 : en:Chapter 03
00:12:58.570 : en:Chapter 04
00:20:21.554 : en:Chapter 05
00:23:16.604 : en:Chapter 06
00:30:16.566 : en:Chapter 07
00:34:21.978 : en:Chapter 08
00:39:12.227 : en:Chapter 09
00:51:52.570 : en:Chapter 10
00:58:32.012 : en:Chapter 11
01:01:45.830 : en:Chapter 12
01:09:12.444 : en:Chapter 13
01:11:26.286 : en:Chapter 14
01:18:41.554 : en:Chapter 15
01:27:38.466 : en:Chapter 16
01:32:15.952 : en:Chapter 17
01:39:55.453 : en:Chapter 18
01:45:42.425 : en:Chapter 19
01:50:24.374 : en:Chapter 20
01:52:32.168 : en:Chapter 21

(He/Him) He's BvSRips. I dedicate myself to sharing files on this blog for free. But it is difficult to maintain the links online for a long time, they are denounced and deleted, reuploading costs more work, that is why a section for VIP users was created, where they can download all the files published 100% in MEGA, as premium, without spend more. I would greatly appreciate your collaboration so that this blog remains online for a longer time.

BUY VIP HERE

Leave a Reply

Your email address will not be published. Required fields are marked *