Queen Margot (1994) | 720p & 1080p & 2160p BluRay x265-BvS

Queen Margot (1994)

During the late 16th century, Catholics and Protestant Huguenots are fighting over political control of France, which is ruled by the neurotic, hypochondriac Charles IX of France (Jean-Hugues Anglade), and his mother, Catherine de’ Medici (Virna Lisi), a scheming power player. Catherine decides to make an overture of goodwill by offering up her daughter Margaret of Valois (Isabelle Adjani) in marriage to Henry IV of France (Daniel Auteuil), a prominent Huguenot and Kingdom of Navarre, although she also schemes to bring about the notorious St. Bartholomew’s Day Massacre of 1572, when thousands of Protestants are slaughtered. The marriage goes forward but Margot, who does not love Henri, begins a passionate affair with the soldier Joseph Boniface de La Môle (Vincent Pérez), also a Protestant from a well-to-do family. Murders by poisoning follow, as court intrigues multiply and Queen Catherine’s villainous plotting to place her son the Duke of Anjou (Pascal Greggory) on the throne threatens the lives of La Môle, Margot and Henri of Navarre. A book with pages painted with arsenic is intended for Henri but instead causes the slow, agonizing death of King Charles. Henri escapes to Navarre and sends La Môle to fetch Margot, but Guise apprehends him. La Môle is beheaded in the Bastille before Margot can save him, and King Charles finally dies. Margot escapes carrying La Môle’s embalmed head as Anjou is proclaimed King of France as Henry III of France.

Links: iMDB | Trailer

Note: In French with English/German Selectable Subtitles

DOWNLOAD

VIP

This content is reserved for registered users. Sign up here o login to be able to see it. Buy your VIP membership

FREE

  • Queen Margot (1994) (2160p BluRay x265 10bit HDR Tigole) – 22.80GB (ONLY VIP)

NFO

1080p.x265-BvS

General
Unique ID : 106690662769019337481285285112032341454 (0x5043DFCCF835EB5C702B784130E92DCE)
Complete name : Queen Margot (1994) (2160p BluRay x265 10bit HDR Tigole).mkv
Format : Matroska
Format version : Version 4
File size : 22.9 GiB
Duration : 2 h 38 min
Overall bit rate : 20.7 Mb/s
Encoded date : UTC 2021-12-31 13:59:49
Writing application : mkvmerge v55.0.0 (‘Waiting For Space’) 64-bit
Writing library : libebml v1.4.2 + libmatroska v1.6.4

Video
ID : 1
Format : HEVC
Format/Info : High Efficiency Video Coding
Format profile : Main [email protected]@Main
HDR format : SMPTE ST 2086, HDR10 compatible
Codec ID : V_MPEGH/ISO/HEVC
Duration : 2 h 38 min
Bit rate : 20.0 Mb/s
Width : 3 840 pixels
Height : 2 076 pixels
Display aspect ratio : 1.85:1
Frame rate mode : Constant
Frame rate : 24.000 FPS
Color space : YUV
Chroma subsampling : 4:2:0
Bit depth : 10 bits
Bits/(Pixel*Frame) : 0.104
Stream size : 22.1 GiB (97%)
Writing library : x265M – 3.4+35-772bb4c84:[Windows][GCC 10.2.0][64 bit] 10bit
Encoding settings : cpuid=1111039 / frame-threads=3 / numa-pools=8 / wpp / no-pmode / no-pme / no-psnr / no-ssim / log-level=2 / input-csp=1 / input-res=3840×2076 / interlace=0 / total-frames=228144 / level-idc=0 / high-tier=1 / uhd-bd=0 / ref=4 / no-allow-non-conformance / repeat-headers / annexb / aud / no-hrd / info / hash=0 / no-temporal-layers / open-gop / min-keyint=24 / keyint=250 / gop-lookahead=0 / bframes=4 / b-adapt=2 / b-pyramid / bframe-bias=0 / rc-lookahead=25 / lookahead-slices=4 / scenecut=40 / hist-scenecut=0 / radl=0 / no-splice / no-intra-refresh / ctu=64 / min-cu-size=8 / rect / no-amp / max-tu-size=32 / tu-inter-depth=1 / tu-intra-depth=1 / limit-tu=0 / rdoq-level=2 / dynamic-rd=0.00 / no-ssim-rd / signhide / no-tskip / nr-intra=0 / nr-inter=0 / no-constrained-intra / strong-intra-smoothing / max-merge=3 / limit-refs=3 / limit-modes / me=3 / subme=3 / merange=57 / temporal-mvp / no-frame-dup / no-hme / weightp / no-weightb / no-analyze-src-pics / deblock=0:0 / no-sao / no-sao-non-deblock / rd=4 / selective-sao=0 / no-early-skip / rskip / no-fast-intra / no-tskip-fast / no-cu-lossless / no-b-intra / no-splitrd-skip / rdpenalty=0 / psy-rd=2.00 / psy-rdoq=1.00 / no-rd-refine / no-lossless / cbqpoffs=0 / crqpoffs=0 / rc=abr / bitrate=20000 / qcomp=0.60 / qpstep=4 / stats-write=0 / stats-read=2 / cplxblur=20.0 / qblur=0.5 / ipratio=1.40 / pbratio=1.30 / aq-mode=2 / aq-strength=1.00 / cutree / zone-count=0 / no-strict-cbr / qg-size=32 / no-rc-grain / qpmax=69 / qpmin=0 / no-const-vbv / sar=0 / overscan=0 / videoformat=5 / range=0 / colorprim=9 / transfer=16 / colormatrix=9 / chromaloc=0 / display-window=0 / master-display=G(13250,34500)B(7500,3000)R(34000,16000)WP(15635,16450)L(10000000,1) / cll=1539,376 / min-luma=0 / max-luma=1023 / log2-max-poc-lsb=8 / vui-timing-info / vui-hrd-info / slices=1 / no-opt-qp-pps / no-opt-ref-list-length-pps / no-multi-pass-opt-rps / scenecut-bias=0.05 / hist-threshold=0.03 / no-opt-cu-delta-qp / aq-motion / hdr10 / hdr10-opt / no-dhdr10-opt / no-idr-recovery-sei / analysis-reuse-level=0 / analysis-save-reuse-level=0 / analysis-load-reuse-level=0 / scale-factor=0 / refine-intra=0 / refine-inter=0 / refine-mv=1 / refine-ctu-distortion=0 / no-limit-sao / ctu-info=0 / no-lowpass-dct / refine-analysis-type=0 / copy-pic=1 / max-ausize-factor=1.0 / no-dynamic-refine / no-single-sei / no-hevc-aq / no-svt / no-field / qp-adaptation-range=1.00 / scenecut-aware-qp=0conformance-window-offsets / right=0 / bottom=0 / decoder-max-rate=0 / no-vbv-live-multi-pass
Default : Yes
Forced : No
Color range : Limited
Color primaries : BT.2020
Transfer characteristics : PQ
Matrix coefficients : BT.2020 non-constant
Mastering display color primaries : Display P3
Mastering display luminance : min: 0.0001 cd/m2, max: 1000 cd/m2
Maximum Content Light Level : 1539 cd/m2
Maximum Frame-Average Light Level : 376 cd/m2

Audio
ID : 2
Format : AAC LC
Format/Info : Advanced Audio Codec Low Complexity
Codec ID : A_AAC-2
Duration : 2 h 38 min
Bit rate : 662 kb/s
Channel(s) : 6 channels
Channel layout : C L R Ls Rs LFE
Sampling rate : 48.0 kHz
Frame rate : 46.875 FPS (1024 SPF)
Compression mode : Lossy
Delay relative to video : 20 ms
Stream size : 755 MiB (3%)
Language : French
Default : Yes
Forced : No

Text #1
ID : 3
Format : VobSub
Muxing mode : zlib
Codec ID : S_VOBSUB
Codec ID/Info : Picture based subtitle format used on DVDs
Duration : 2 h 37 min
Bit rate : 6 012 b/s
Count of elements : 1554
Stream size : 6.78 MiB (0%)
Language : English
Default : Yes
Forced : No

Text #2
ID : 4
Format : VobSub
Muxing mode : zlib
Codec ID : S_VOBSUB
Codec ID/Info : Picture based subtitle format used on DVDs
Duration : 2 h 32 min
Bit rate : 7 986 b/s
Count of elements : 1655
Stream size : 8.72 MiB (0%)
Language : German
Default : No
Forced : No

Menu
00:00:00.000 : en:Chapter 01
00:09:55.000 : en:Chapter 02
00:23:41.000 : en:Chapter 03
00:37:53.000 : en:Chapter 04
00:44:16.000 : en:Chapter 05
01:05:24.000 : en:Chapter 06
01:12:09.000 : en:Chapter 07
01:17:25.000 : en:Chapter 08
01:26:46.000 : en:Chapter 09
01:31:19.000 : en:Chapter 10
01:34:08.000 : en:Chapter 11
01:36:53.000 : en:Chapter 12
01:42:49.000 : en:Chapter 13
01:49:15.000 : en:Chapter 14
01:52:43.000 : en:Chapter 15
02:04:24.000 : en:Chapter 16
02:13:01.000 : en:Chapter 17
02:17:09.000 : en:Chapter 18
02:24:05.000 : en:Chapter 19
02:30:28.000 : en:Chapter 20

 

(He/Him) He's BvSRips. I dedicate myself to sharing files on this blog for free. But it is difficult to maintain the links online for a long time, they are denounced and deleted, reuploading costs more work, that is why a section for VIP users was created, where they can download all the files published 100% in MEGA, as premium, without spend more. I would greatly appreciate your collaboration so that this blog remains online for a longer time.

BUY VIP HERE

Leave a Reply

Your email address will not be published. Required fields are marked *