Prince Sign 'o' the Times (1987) | 720p & 1080p & 2160p BluRay x265-BvS

Highlights from Prince’s 1987 European concert tour, including selections from the rock star’s album of the same title.

Links: IMDB  – Trailer

Note: In English with English Selectable Subtitles

DOWNLOAD

VIP

This content is reserved for registered users. BUY A VIP MEMBERSHIP HERE and login to be able to see it.

FREE

  • Prince.Sign.o’the.Times.1987.UHD.BluRay.2160p.DTS-HD.MA.5.1.SDR.HEVC.REMUX-FraMeSToR – 38.50GB (ONLY VIP)

NFO

Prince.Sign.o'the.Times.1987.UHD.BluRay.2160p.DTS-HD.MA.5.1.SDR.HEVC.REMUX-FraMeSToR

General
Unique ID : 229468256176465531567485809356076230895 (0xACA1FA8496F3D5A64FCE11B686D828EF)
Complete name : Prince.Sign.o’the.Times.1987.UHD.BluRay.2160p.DTS-HD.MA.5.1.SDR.HEVC.REMUX-FraMeSToR.mkv
Format : Matroska
Format version : Version 4
File size : 38.5 GiB
Duration : 1 h 24 min
Overall bit rate mode : Variable
Overall bit rate : 64.9 Mb/s
Movie name : Prince – Sign o’ the Times (1987)
Encoded date : UTC 2021-08-19 21:11:51
Writing application : mkvmerge v60.0.0 (‘Are We Copies?’) 64-bit
Writing library : libebml v1.4.2 + libmatroska v1.6.4
IMDB : tt0093970
TMDB : movie/38178

Video
ID : 1
Format : HEVC
Format/Info : High Efficiency Video Coding
Format profile : Main [email protected]@High
Codec ID : V_MPEGH/ISO/HEVC
Duration : 1 h 24 min
Bit rate : 59.6 Mb/s
Width : 3 840 pixels
Height : 2 160 pixels
Display aspect ratio : 16:9
Frame rate mode : Constant
Frame rate : 23.976 (24000/1001) FPS
Original frame rate : 23.976 (23976/1000) FPS
Color space : YUV
Chroma subsampling : 4:2:0
Bit depth : 10 bits
Bits/(Pixel*Frame) : 0.300
Stream size : 35.4 GiB (92%)
Writing library : x265 2.3+18-88fd9082764c:[Windows][GCC 5.3.1][64 bit] 10bit
Encoding settings : cpuid=1173503 / frame-threads=3 / numa-pools=8 / wpp / no-pmode / no-pme / no-psnr / no-ssim / log-level=2 / input-csp=1 / input-res=3840×2160 / interlace=0 / total-frames=0 / level-idc=51 / high-tier=1 / uhd-bd=1 / ref=3 / no-allow-non-conformance / repeat-headers / annexb / aud / hrd / info / hash=0 / no-temporal-layers / no-open-gop / min-keyint=1 / keyint=24 / bframes=4 / b-adapt=2 / no-b-pyramid / bframe-bias=0 / rc-lookahead=20 / lookahead-slices=8 / scenecut=40 / no-intra-refresh / ctu=64 / min-cu-size=8 / no-rect / no-amp / max-tu-size=32 / tu-inter-depth=1 / tu-intra-depth=1 / limit-tu=0 / rdoq-level=0 / dynamic-rd=0.00 / signhide / no-tskip / nr-intra=0 / nr-inter=0 / no-constrained-intra / strong-intra-smoothing / max-merge=2 / limit-refs=3 / no-limit-modes / me=1 / subme=2 / merange=57 / temporal-mvp / weightp / no-weightb / no-analyze-src-pics / deblock=0:0 / sao / no-sao-non-deblock / rd=1 / no-early-skip / rskip / no-fast-intra / no-tskip-fast / no-cu-lossless / no-b-intra / rdpenalty=0 / psy-rd=0.00 / psy-rdoq=0.00 / no-rd-refine / analysis-mode=0 / no-lossless / cbqpoffs=0 / crqpoffs=0 / rc=abr / bitrate=60000 / qcomp=0.60 / qpstep=4 / stats-write=0 / stats-read=0 / vbv-maxrate=85000 / vbv-bufsize=85000 / vbv-init=0.9 / ipratio=1.40 / pbratio=1.30 / aq-mode=1 / aq-strength=1.00 / cutree / zone-count=0 / no-strict-cbr / qg-size=32 / no-rc-grain / qpmax=69 / qpmin=0 / sar=1 / overscan=0 / videoformat=5 / range=0 / colorprim=1 / transfer=1 / colormatrix=1 / chromaloc=0 / display-window=0 / max-cll=0,0 / min-luma=0 / max-luma=1023 / log2-max-poc-lsb=8 / vui-timing-info / vui-hrd-info / slices=1 / opt-qp-pps / opt-ref-list-length-pps / no-multi-pass-opt-rps / scenecut-bias=0.05 / no-opt-cu-delta-qp / no-aq-motion / no-hdr / no-hdr-opt / refine-level=5
Default : Yes
Forced : No
Color range : Limited
Color primaries : BT.709
Transfer characteristics : BT.709
Matrix coefficients : BT.709

Audio #1
ID : 2
Format : DTS XLL
Format/Info : Digital Theater Systems
Commercial name : DTS-HD Master Audio
Codec ID : A_DTS
Duration : 1 h 24 min
Bit rate mode : Variable
Bit rate : 4 531 kb/s
Channel(s) : 6 channels
Channel layout : C L R Ls Rs LFE
Sampling rate : 48.0 kHz
Frame rate : 93.750 FPS (512 SPF)
Bit depth : 24 bits
Compression mode : Lossless
Stream size : 2.69 GiB (7%)
Title : DTS-HD MA 5.1
Language : English
Default : Yes
Forced : No

Audio #2
ID : 3
Format : FLAC
Format/Info : Free Lossless Audio Codec
Codec ID : A_FLAC
Duration : 1 h 24 min
Bit rate mode : Variable
Bit rate : 751 kb/s
Channel(s) : 2 channels
Channel layout : L R
Sampling rate : 48.0 kHz
Frame rate : 11.719 FPS (4096 SPF)
Bit depth : 16 bits
Compression mode : Lossless
Stream size : 456 MiB (1%)
Title : FLAC 2.0
Writing library : libFLAC 1.3.3 (UTC 2019-08-04)
Language : English
Default : No
Forced : No

Text
ID : 4
Format : PGS
Codec ID : S_HDMV/PGS
Codec ID/Info : Picture based subtitle format used on BDs/HD-DVDs
Duration : 1 h 18 min
Bit rate : 16.2 kb/s
Count of elements : 1182
Stream size : 9.07 MiB (0%)
Title : Japanese
Language : Japanese
Default : No
Forced : No

Menu
00:00:00.000 : Intro
00:02:03.790 : Sign ‘O’ The Times
00:06:50.536 : Play In The Sunshine
00:10:54.071 : Little Red Corvette
00:12:46.600 : Housequake
00:16:46.465 : Slow Love
00:21:46.139 : I Could Never Take The Place Of Your Man
00:30:35.335 : Hot Thing
00:36:33.819 : Now’s The Time
00:39:26.325 : Drum Solo
00:41:53.096 : U Got The Look
00:47:17.671 : If I Was Your Girlfriend
00:52:45.666 : Forever In My Life
01:03:52.958 : It’s Gonna Be A Beautiful Night
01:12:39.443 : The Cross
01:19:20.093 : Credits

Leave a Reply

Your email address will not be published. Required fields are marked *