Predators (2010) | 720p & 1080p & 2160p x265-BvS

Royce awakens to find himself Parachute into an unfamiliar jungle. He meets several others who arrived in the same manner: Mexican drug cartel enforcer Cuchillo, Spetsnaz soldier Nikolai, Israel Defense Forces sniper Isabelle, Revolutionary United Front officer Mombasa, San Quentin death row inmate Stans, Yakuza enforcer Hanzo, and general practice doctor Edwin.

Links: HOMEPAGE – TV.com

Note: In English with English/French/German/Spanish Selectable Subtitles

DOWNLOAD

VIP (GOOGLE DRIVE)

This content is reserved for registered users. BUY A VIP MEMBERSHIP HERE and login to be able to see it.

FREE

  • Predators (2010) (2160p BluRay x265 10bit HDR Tigole) (ONLY VIP)

NFO

Predators (2010) (2160p BluRay x265 10bit HDR Tigole)

General
Unique ID : 18851856403266216986969452535428323270 (0xE2EBC481E37776B3A47A646E0F697C6)
Complete name : Predators (2010) (2160p BluRay x265 10bit HDR Tigole).mkv
Format : Matroska
Format version : Version 4
File size : 13.8 GiB
Duration : 1 h 46 min
Overall bit rate : 18.5 Mb/s
Movie name : Predators
Encoded date : UTC 2021-04-09 08:48:37
Writing application : mkvmerge v55.0.0 (‘Waiting For Space’) 64-bit
Writing library : libebml v1.4.2 + libmatroska v1.6.4

Video
ID : 1
Format : HEVC
Format/Info : High Efficiency Video Coding
Format profile : Main [email protected]@Main
HDR format : SMPTE ST 2086, HDR10 compatible
Codec ID : V_MPEGH/ISO/HEVC
Duration : 1 h 46 min
Bit rate : 17.5 Mb/s
Width : 3 840 pixels
Height : 1 608 pixels
Display aspect ratio : 2.40:1
Frame rate mode : Constant
Frame rate : 23.976 (24000/1001) FPS
Color space : YUV
Chroma subsampling : 4:2:0
Bit depth : 10 bits
Bits/(Pixel*Frame) : 0.118
Stream size : 13.1 GiB (95%)
Writing library : x265M – 3.4+35-772bb4c84:[Windows][GCC 10.2.0][64 bit] 10bit
Encoding settings : cpuid=1111039 / frame-threads=3 / numa-pools=8 / wpp / no-pmode / no-pme / no-psnr / no-ssim / log-level=2 / input-csp=1 / input-res=3840×1608 / interlace=0 / total-frames=153772 / level-idc=0 / high-tier=1 / uhd-bd=0 / ref=4 / no-allow-non-conformance / repeat-headers / annexb / aud / no-hrd / info / hash=0 / no-temporal-layers / open-gop / min-keyint=23 / keyint=250 / gop-lookahead=0 / bframes=4 / b-adapt=2 / b-pyramid / bframe-bias=0 / rc-lookahead=25 / lookahead-slices=4 / scenecut=40 / hist-scenecut=0 / radl=0 / no-splice / no-intra-refresh / ctu=64 / min-cu-size=8 / rect / no-amp / max-tu-size=32 / tu-inter-depth=1 / tu-intra-depth=1 / limit-tu=0 / rdoq-level=2 / dynamic-rd=0.00 / no-ssim-rd / signhide / no-tskip / nr-intra=0 / nr-inter=0 / no-constrained-intra / strong-intra-smoothing / max-merge=3 / limit-refs=3 / limit-modes / me=3 / subme=3 / merange=57 / temporal-mvp / no-frame-dup / no-hme / weightp / no-weightb / no-analyze-src-pics / deblock=0:0 / no-sao / no-sao-non-deblock / rd=4 / selective-sao=0 / no-early-skip / rskip / no-fast-intra / no-tskip-fast / no-cu-lossless / no-b-intra / no-splitrd-skip / rdpenalty=0 / psy-rd=2.00 / psy-rdoq=1.00 / no-rd-refine / no-lossless / cbqpoffs=0 / crqpoffs=0 / rc=abr / bitrate=17500 / qcomp=0.60 / qpstep=4 / stats-write=0 / stats-read=2 / cplxblur=20.0 / qblur=0.5 / ipratio=1.40 / pbratio=1.30 / aq-mode=2 / aq-strength=1.00 / cutree / zone-count=0 / no-strict-cbr / qg-size=32 / no-rc-grain / qpmax=69 / qpmin=0 / no-const-vbv / sar=0 / overscan=0 / videoformat=5 / range=0 / colorprim=9 / transfer=16 / colormatrix=9 / chromaloc=0 / display-window=0 / master-display=G(13250,34500)B(7500,3000)R(34000,16000)WP(15635,16450)L(10000000,50) / cll=0,0 / min-luma=0 / max-luma=1023 / log2-max-poc-lsb=8 / vui-timing-info / vui-hrd-info / slices=1 / no-opt-qp-pps / no-opt-ref-list-length-pps / no-multi-pass-opt-rps / scenecut-bias=0.05 / hist-threshold=0.03 / no-opt-cu-delta-qp / aq-motion / hdr10 / hdr10-opt / no-dhdr10-opt / no-idr-recovery-sei / analysis-reuse-level=0 / analysis-save-reuse-level=0 / analysis-load-reuse-level=0 / scale-factor=0 / refine-intra=0 / refine-inter=0 / refine-mv=1 / refine-ctu-distortion=0 / no-limit-sao / ctu-info=0 / no-lowpass-dct / refine-analysis-type=0 / copy-pic=1 / max-ausize-factor=1.0 / no-dynamic-refine / no-single-sei / no-hevc-aq / no-svt / no-field / qp-adaptation-range=1.00 / scenecut-aware-qp=0conformance-window-offsets / right=0 / bottom=0 / decoder-max-rate=0 / no-vbv-live-multi-pass
Default : Yes
Forced : No
Color range : Limited
Color primaries : BT.2020
Transfer characteristics : PQ
Matrix coefficients : BT.2020 non-constant
Mastering display color primaries : Display P3
Mastering display luminance : min: 0.0050 cd/m2, max: 1000 cd/m2

Audio #1
ID : 2
Format : AAC LC
Format/Info : Advanced Audio Codec Low Complexity
Codec ID : A_AAC-2
Duration : 1 h 46 min
Bit rate : 713 kb/s
Channel(s) : 6 channels
Channel layout : C L R Ls Rs LFE
Sampling rate : 48.0 kHz
Frame rate : 46.875 FPS (1024 SPF)
Compression mode : Lossy
Delay relative to video : 20 ms
Stream size : 545 MiB (4%)
Language : English
Default : Yes
Forced : No

Audio #2
ID : 3
Format : AAC LC SBR
Format/Info : Advanced Audio Codec Low Complexity with Spectral Band Replication
Commercial name : HE-AAC
Format settings : Explicit
Codec ID : A_AAC-2
Duration : 1 h 46 min
Bit rate : 66.2 kb/s
Channel(s) : 2 channels
Channel layout : L R
Sampling rate : 48.0 kHz
Frame rate : 23.438 FPS (2048 SPF)
Compression mode : Lossy
Delay relative to video : 40 ms
Stream size : 50.4 MiB (0%)
Title : Commentary
Language : English
Default : No
Forced : No

Text #1
ID : 4
Format : VobSub
Muxing mode : zlib
Codec ID : S_VOBSUB
Codec ID/Info : Picture based subtitle format used on DVDs
Duration : 1 h 45 min
Bit rate : 5 294 b/s
Count of elements : 1009
Stream size : 4.01 MiB (0%)
Language : English
Default : No
Forced : No

Text #2
ID : 5
Format : VobSub
Muxing mode : zlib
Codec ID : S_VOBSUB
Codec ID/Info : Picture based subtitle format used on DVDs
Duration : 1 h 46 min
Bit rate : 25.1 kb/s
Count of elements : 2190
Stream size : 19.1 MiB (0%)
Title : Commentary
Language : English
Default : No
Forced : No

Text #3
ID : 6
Format : VobSub
Muxing mode : zlib
Codec ID : S_VOBSUB
Codec ID/Info : Picture based subtitle format used on DVDs
Duration : 1 h 45 min
Bit rate : 2 464 b/s
Count of elements : 739
Stream size : 1.86 MiB (0%)
Language : Chinese
Default : No
Forced : No

Text #4
ID : 7
Format : VobSub
Muxing mode : zlib
Codec ID : S_VOBSUB
Codec ID/Info : Picture based subtitle format used on DVDs
Duration : 1 h 43 min
Bit rate : 3 325 b/s
Count of elements : 749
Stream size : 2.47 MiB (0%)
Language : Czech
Default : No
Forced : No

Text #5
ID : 8
Format : VobSub
Muxing mode : zlib
Codec ID : S_VOBSUB
Codec ID/Info : Picture based subtitle format used on DVDs
Duration : 1 h 43 min
Bit rate : 3 595 b/s
Count of elements : 749
Stream size : 2.67 MiB (0%)
Language : Danish
Default : No
Forced : No

Text #6
ID : 9
Format : VobSub
Muxing mode : zlib
Codec ID : S_VOBSUB
Codec ID/Info : Picture based subtitle format used on DVDs
Duration : 1 h 46 min
Bit rate : 19.3 kb/s
Count of elements : 2149
Stream size : 14.8 MiB (0%)
Title : Commentary
Language : Danish
Default : No
Forced : No

Text #7
ID : 10
Format : VobSub
Muxing mode : zlib
Codec ID : S_VOBSUB
Codec ID/Info : Picture based subtitle format used on DVDs
Duration : 1 h 43 min
Bit rate : 3 449 b/s
Count of elements : 587
Stream size : 2.56 MiB (0%)
Language : Dutch
Default : No
Forced : No

Text #8
ID : 11
Format : VobSub
Muxing mode : zlib
Codec ID : S_VOBSUB
Codec ID/Info : Picture based subtitle format used on DVDs
Duration : 1 h 46 min
Bit rate : 19.4 kb/s
Count of elements : 2149
Stream size : 14.8 MiB (0%)
Title : Commentary
Language : Dutch
Default : No
Forced : No

Text #9
ID : 12
Format : VobSub
Muxing mode : zlib
Codec ID : S_VOBSUB
Codec ID/Info : Picture based subtitle format used on DVDs
Duration : 1 h 43 min
Bit rate : 3 395 b/s
Count of elements : 748
Stream size : 2.52 MiB (0%)
Language : Finnish
Default : No
Forced : No

Text #10
ID : 13
Format : VobSub
Muxing mode : zlib
Codec ID : S_VOBSUB
Codec ID/Info : Picture based subtitle format used on DVDs
Duration : 1 h 46 min
Bit rate : 17.5 kb/s
Count of elements : 2149
Stream size : 13.4 MiB (0%)
Title : Commentary
Language : Finnish
Default : No
Forced : No

Text #11
ID : 14
Format : VobSub
Muxing mode : zlib
Codec ID : S_VOBSUB
Codec ID/Info : Picture based subtitle format used on DVDs
Duration : 1 h 43 min
Bit rate : 3 541 b/s
Count of elements : 757
Stream size : 2.63 MiB (0%)
Language : French
Default : No
Forced : No

Text #12
ID : 15
Format : VobSub
Muxing mode : zlib
Codec ID : S_VOBSUB
Codec ID/Info : Picture based subtitle format used on DVDs
Duration : 1 h 46 min
Bit rate : 18.8 kb/s
Count of elements : 2150
Stream size : 14.4 MiB (0%)
Title : Commentary
Language : French
Default : No
Forced : No

Text #13
ID : 16
Format : VobSub
Muxing mode : zlib
Codec ID : S_VOBSUB
Codec ID/Info : Picture based subtitle format used on DVDs
Duration : 1 h 43 min
Bit rate : 4 548 b/s
Count of elements : 749
Stream size : 3.38 MiB (0%)
Language : German
Default : No
Forced : No

Text #14
ID : 17
Format : VobSub
Muxing mode : zlib
Codec ID : S_VOBSUB
Codec ID/Info : Picture based subtitle format used on DVDs
Duration : 1 h 46 min
Bit rate : 21.3 kb/s
Count of elements : 2149
Stream size : 16.3 MiB (0%)
Title : Commentary
Language : German
Default : No
Forced : No

Text #15
ID : 18
Format : VobSub
Muxing mode : zlib
Codec ID : S_VOBSUB
Codec ID/Info : Picture based subtitle format used on DVDs
Duration : 1 h 43 min
Bit rate : 3 748 b/s
Count of elements : 749
Stream size : 2.79 MiB (0%)
Language : Italian
Default : No
Forced : No

Text #16
ID : 19
Format : VobSub
Muxing mode : zlib
Codec ID : S_VOBSUB
Codec ID/Info : Picture based subtitle format used on DVDs
Duration : 1 h 46 min
Bit rate : 19.4 kb/s
Count of elements : 2149
Stream size : 14.8 MiB (0%)
Title : Commentary
Language : Italian
Default : No
Forced : No

Text #17
ID : 20
Format : VobSub
Muxing mode : zlib
Codec ID : S_VOBSUB
Codec ID/Info : Picture based subtitle format used on DVDs
Duration : 1 h 37 min
Bit rate : 2 616 b/s
Count of elements : 674
Stream size : 1.83 MiB (0%)
Language : Japanese
Default : No
Forced : No

Text #18
ID : 21
Format : VobSub
Muxing mode : zlib
Codec ID : S_VOBSUB
Codec ID/Info : Picture based subtitle format used on DVDs
Duration : 1 h 42 min
Bit rate : 11.7 kb/s
Count of elements : 1454
Stream size : 8.56 MiB (0%)
Title : Commentary
Language : Japanese
Default : No
Forced : No

Text #19
ID : 22
Format : VobSub
Muxing mode : zlib
Codec ID : S_VOBSUB
Codec ID/Info : Picture based subtitle format used on DVDs
Duration : 1 h 43 min
Bit rate : 3 612 b/s
Count of elements : 749
Stream size : 2.68 MiB (0%)
Language : Norwegian Bokmal
Default : No
Forced : No

Text #20
ID : 23
Format : VobSub
Muxing mode : zlib
Codec ID : S_VOBSUB
Codec ID/Info : Picture based subtitle format used on DVDs
Duration : 1 h 46 min
Bit rate : 19.2 kb/s
Count of elements : 2150
Stream size : 14.7 MiB (0%)
Title : Commentary
Language : Norwegian Bokmal
Default : No
Forced : No

Text #21
ID : 24
Format : VobSub
Muxing mode : zlib
Codec ID : S_VOBSUB
Codec ID/Info : Picture based subtitle format used on DVDs
Duration : 1 h 43 min
Bit rate : 3 385 b/s
Count of elements : 625
Stream size : 2.52 MiB (0%)
Language : Polish
Default : No
Forced : No

Text #22
ID : 25
Format : VobSub
Muxing mode : zlib
Codec ID : S_VOBSUB
Codec ID/Info : Picture based subtitle format used on DVDs
Duration : 1 h 45 min
Bit rate : 3 643 b/s
Count of elements : 750
Stream size : 2.74 MiB (0%)
Language : Spanish
Default : No
Forced : No

Text #23
ID : 26
Format : VobSub
Muxing mode : zlib
Codec ID : S_VOBSUB
Codec ID/Info : Picture based subtitle format used on DVDs
Duration : 1 h 46 min
Bit rate : 22.1 kb/s
Count of elements : 2155
Stream size : 16.9 MiB (0%)
Title : Commentary
Language : Spanish
Default : No
Forced : No

Text #24
ID : 27
Format : VobSub
Muxing mode : zlib
Codec ID : S_VOBSUB
Codec ID/Info : Picture based subtitle format used on DVDs
Duration : 1 h 43 min
Bit rate : 3 621 b/s
Count of elements : 750
Stream size : 2.69 MiB (0%)
Language : Swedish
Default : No
Forced : No

Text #25
ID : 28
Format : VobSub
Muxing mode : zlib
Codec ID : S_VOBSUB
Codec ID/Info : Picture based subtitle format used on DVDs
Duration : 1 h 46 min
Bit rate : 16.4 kb/s
Count of elements : 2150
Stream size : 12.5 MiB (0%)
Title : Commentary
Language : Swedish
Default : No
Forced : No

Menu
00:00:00.000 : en:Chapter 01
00:05:26.868 : en:Chapter 02
00:07:57.393 : en:Chapter 03
00:13:33.521 : en:Chapter 04
00:17:26.587 : en:Chapter 05
00:20:02.075 : en:Chapter 06
00:23:46.299 : en:Chapter 07
00:26:19.119 : en:Chapter 08
00:31:34.642 : en:Chapter 09
00:34:56.511 : en:Chapter 10
00:38:24.719 : en:Chapter 11
00:41:57.056 : en:Chapter 12
00:46:12.603 : en:Chapter 13
00:49:57.786 : en:Chapter 14
00:53:27.704 : en:Chapter 15
00:57:42.792 : en:Chapter 16
01:02:11.853 : en:Chapter 17
01:05:48.736 : en:Chapter 18
01:09:38.757 : en:Chapter 19
01:14:17.077 : en:Chapter 20
01:16:25.539 : en:Chapter 21
01:19:26.928 : en:Chapter 22
01:21:34.472 : en:Chapter 23
01:23:51.901 : en:Chapter 24
01:27:33.539 : en:Chapter 25
01:30:48.234 : en:Chapter 26
01:34:12.563 : en:Chapter 27
01:41:17.446 : en:Chapter 28

 

Leave a Reply

Your email address will not be published. Required fields are marked *